<
 
Статистика раздачи
Скачали: [ 1 ]
Размер:  9.29 GB   |    Зарегистрирован:  1 месяц 2 дня   |    Скачан:  1 раз
Сидов:  0 (+0)  [  0 KB/s  ]   Личеров:  0 (+0)  [  0 KB/s  ]   Подробная статистика пиров
 
   
 
 
 
Автор Сообщение

sergey82 ®

Пол:

Стаж: 5 лет 6 месяцев

Сообщений: 237

Торрент-статистика

Информация о фильме
Название: Дальше по коридору
Оригинальное название: Down a Dark Hall
Год выхода: 2018
Жанр: Ужасы, фэнтези, триллер, драма
Режиссер: Родриго Кортес
В ролях: Анна-София Робб, Ума Турман, Изабель Фурман, Виктория Моролес, Ной Сильвер, Тейлор Расселл, Рози Дэй, Ребекка Фронт, Джоди Мэй, Пип Торренс
О фильме:
Трудный подросток Кит Горди никак не может смириться со смертью отца, которая произошла несколько лет назад. Девушка бунтует и своим поведением добивается того, что ее отправляют в школу-интернат Блэквуд. Кроме нее туда прибывают еще четыре проблемные ученицы, в каждой из которых директриса мадам Дюрэ намерена увидеть скрытый талант и вытащить его наружу. Девушки вскоре и впрямь обнаруживают недюжинные способности в разных областях науки и искусства, но Кит чувствует, что что-то тут не так.

Страна: Испания, США
Студия: Fickle Fish Films,Nostromo Pictures,Temple Hill Entertainment
Продолжительность: 01:36:26
Перевод: Профессиональный (многоголосый, закадровый) | HDrezka Studio
Файл
Кодек: H.264
Качество: BDRip 1080p
Видео: AVC/H264, 1920x804, 23.976 fps, 12.1 Mbps
Аудио #1: AC-3, 2 ch, 192 Kbps | Русский (MVO-HDrezka Studio)
Аудио #2: DTS, 6 ch, 1 510 Kbps | Английский (Оригинал)
Субтитры: Русские, английские

M/I

General
Unique ID : 339910666046782100403422538075359605727 (0xFFB869BB641CD8000339E23984CEF3DF)
Complete name : Down.a.Dark.Hall.2018.BDRip.1080p.MVO.HDRezka Studio.mkv
Format : Matroska
Format version : Version 4
File size : 9.29 GiB
Duration : 1 h 36 min
Overall bit rate : 13.8 Mb/s
Encoded date : UTC 2018-10-15 07:56:05
Writing application : mkvmerge v27.0.0 ("Metropolis") 64-bit
Writing library : libebml v1.3.6 + libmatroska v1.4.9
Video
ID : 1
Format : AVC
Format/Info : Advanced Video Codec
Format profile : High@L4.1
Format settings : CABAC / 5 Ref Frames
Format settings, CABAC : Yes
Format settings, ReFrames : 5 frames
Codec ID : V_MPEG4/ISO/AVC
Duration : 1 h 36 min
Bit rate : 12.1 Mb/s
Width : 1 920 pixels
Height : 804 pixels
Display aspect ratio : 2.40:1
Frame rate mode : Constant
Frame rate : 23.976 (24000/1001) FPS
Color space : YUV
Chroma subsampling : 4:2:0
Bit depth : 8 bits
Scan type : Progressive
Bits/(Pixel*Frame) : 0.327
Stream size : 8.14 GiB (88%)
Title : CHD
Writing library : x264 core 155 r2893 b00bcaf
Encoding settings : cabac=1 / ref=5 / deblock=1:-3:-3 / analyse=0x3:0x113 / me=umh / subme=10 / psy=1 / psy_rd=1.00:0.05 / mixed_ref=1 / me_range=48 / chroma_me=1 / trellis=2 / 8x8dct=1 / cqm=0 / deadzone=21,11 / fast_pskip=0 / chroma_qp_offset=-2 / threads=18 / lookahead_threads=3 / sliced_threads=0 / nr=0 / decimate=1 / interlaced=0 / bluray_compat=0 / constrained_intra=0 / bframes=8 / b_pyramid=2 / b_adapt=2 / b_bias=0 / direct=3 / weightb=1 / open_gop=0 / weightp=2 / keyint=250 / keyint_min=23 / scenecut=40 / intra_refresh=0 / rc_lookahead=40 / rc=crf / mbtree=0 / crf=19.5 / qcomp=0.60 / qpmin=0 / qpmax=69 / qpstep=4 / vbv_maxrate=50000 / vbv_bufsize=45000 / crf_max=0.0 / nal_hrd=none / filler=0 / ip_ratio=1.40 / pb_ratio=1.30 / aq=3:1.00
Language : English
Default : Yes
Forced : No
Color range : Limited
Matrix coefficients : BT.709
Audio #1
ID : 2
Format : AC-3
Format/Info : Audio Coding 3
Commercial name : Dolby Digital
Codec ID : A_AC3
Duration : 1 h 36 min
Bit rate mode : Constant
Bit rate : 192 kb/s
Channel(s) : 2 channels
Channel layout : L R
Sampling rate : 48.0 kHz
Frame rate : 31.250 FPS (1536 SPF)
Bit depth : 16 bits
Compression mode : Lossy
Stream size : 132 MiB (1%)
Title : MVO | HDRezka Studio
Language : Russian
Service kind : Complete Main
Default : No
Forced : No
Audio #2
ID : 3
Format : DTS
Format/Info : Digital Theater Systems
Codec ID : A_DTS
Duration : 1 h 36 min
Bit rate mode : Constant
Bit rate : 1 509 kb/s
Channel(s) : 6 channels
Channel layout : C L R Ls Rs LFE
Sampling rate : 48.0 kHz
Frame rate : 93.750 FPS (512 SPF)
Bit depth : 24 bits
Compression mode : Lossy
Stream size : 1.02 GiB (11%)
Title : Original
Language : English
Default : No
Forced : No
Text #1
ID : 4
Format : UTF-8
Codec ID : S_TEXT/UTF8
Codec ID/Info : UTF-8 Plain Text
Duration : 1 h 27 min
Bit rate : 79 b/s
Count of elements : 954
Stream size : 50.7 KiB (0%)
Title : Full
Language : Russian
Default : No
Forced : No
Text #2
ID : 5
Format : UTF-8
Codec ID : S_TEXT/UTF8
Codec ID/Info : UTF-8 Plain Text
Duration : 1 h 27 min
Bit rate : 44 b/s
Count of elements : 954
Stream size : 28.6 KiB (0%)
Title : Full
Language : English
Default : Yes
Forced : No
Menu
00:00:00.000 : en:00:00:00.000
00:06:26.177 : en:00:06:26.177
00:11:25.685 : en:00:11:25.685
00:16:55.139 : en:00:16:55.139
00:21:04.638 : en:00:21:04.638
00:28:22.701 : en:00:28:22.701
00:33:12.199 : en:00:33:12.199
00:39:07.428 : en:00:39:07.428
00:44:45.391 : en:00:44:45.391
00:48:40.835 : en:00:48:40.835
00:55:53.600 : en:00:55:53.600
01:01:56.880 : en:01:01:56.880
01:07:30.380 : en:01:07:30.380
01:11:28.493 : en:01:11:28.493
01:16:18.115 : en:01:16:18.115
01:26:23.428 : en:01:26:23.428

Скриншоты


[megatrack.top].t163316.torrent
Торрент: Зарегистрирован   [ 2018-10-15 13:50 ]

Скачать torrent

------------------------------

47 KB

Статус: проверено
Скачан: Скачаны:
Размер: 9.29 GB
Оценка:  5 (Голосов: 1)
Поблагодарили: 0  Спасибо
:
 
[Профиль] [ЛС]
Показать сообщения:    

Текущее время: Сегодня 16:58

Часовой пояс: GMT + 2



Вы не можете начинать темы
Вы не можете отвечать на сообщения
Вы не можете редактировать свои сообщения
Вы не можете удалять свои сообщения
Вы не можете голосовать в опросах
Вы не можете прикреплять файлы к сообщениям
Вы можете скачивать файлы




покупка трафика на сайт