Статистика раздачи
Нет
 
   
 
 
Автор Сообщение

sibiryak ®

Пол:

Стаж: 3 года 8 месяцев

Сообщений: 16361

Откуда: Petropavlovsk kazakhstan

Торрент-статистика

-Анна Шевцова | Курс по копирайтингу «Landing page - новый подход» (2015) PCRec- Автор (режиссер): Анна Шевцова
Жанр: Landing page
Описание:
Курс научит вас создавать посадочные страницы, которые работают — приносят заявки, звонки, подписки, продажи любому бизнесу.
Хотите стать мастером по созданию эффективных страниц? Изучите программу сейчас.
Уроки курса научат вас комплексно решать задачу клиента от постановки цели посадочной страницы до создания продающего текста.
Как начать, о чем писать, как цеплять словом, когда закончить текст на странице: вы получите полный объем профессиональных знаний.
Ваш результат курса – овладение одной из самых востребованных услуг в копирайтинге, за которую готовы хорошо платить заказчики.
Продолжительность: 23:45:00
Качество видео: PCRec
Видео: AVC, 1280x720, ~200 kbps
Аудио: AAC, 2 ch, 36,8 kbps, CBR

Mediainfo:

Общее
Формат                                   : MPEG-4
Профиль формата                          : Base Media / Version 2
Идентификатор кодека                     : mp42
Режим общего битрейта                    : Переменный
Общий поток                              : 240 Кбит/сек
Дата кодирования                         : UTC 2015-01-21 03:23:31
Дата пометки                             : UTC 2015-01-21 03:23:31
Видео
Идентификатор                            : 1
Формат                                   : AVC
Формат/Информация                        : Advanced Video Codec
Профиль формата                          : [url=mailto:[email protected]][email protected][/url]
Параметр CABAC формата                   : Да
Параметр ReFrames формата                : 4 кадра
Параметр GOP формата                     : M=4, N=45
Идентификатор кодека                     : avc1
Идентификатор кодека/Информация          : Advanced Video Coding
Битрейт                                  : 200 Кбит/сек
Ширина                                   : 1280 пикселей
Высота                                   : 720 пикселей
Соотношение сторон                       : 16:9
Режим частоты кадров                     : Постоянный
Частота кадров                           : 15,000 кадров/сек
Цветовое пространство                    : YUV
Субдискретизация насыщенности            : 4:2:0
Битовая глубина                          : 8 бит
Тип развёртки                            : Прогрессивная
Бит/(Пиксели*Кадры)                      : 0.014
Размер потока                            : 110 Мбайт (83%)
Библиотека кодирования                   : x264 core 142 r11 24e4fed
Дата кодирования                         : UTC 2015-01-21 03:23:31
Дата пометки                             : UTC 2015-01-21 03:23:31
Аудио
Идентификатор                            : 2
Формат                                   : AAC
Формат/Информация                        : Advanced Audio Codec
Профиль формата                          : LC
Идентификатор кодека                     : 40
Вид битрейта                             : Переменный
Битрейт                                  : 36,8 Кбит/сек
Каналы                                   : 2 канала
Channel(s)_Original                      : 1 канал
Расположение каналов                     : Front: C
Частота                                  : 48,0 КГц
Метод сжатия                             : С потерями
Размер потока                            : 20,2 Мбайт (15%)
Дата кодирования                         : UTC 2015-01-21 03:23:31
Дата пометки                             : UTC 2015-01-21 03:23:31

Дополнительная информация:

Программа курса:
Занятие 1 Вводное занятие.
Знакомимся с вами, вашими проектами и решаем все организацинные вопросы, чтобы вам было комфотно получать знания
Занятие 2 Цели и задачи Landing page.
Фундамент вашей работы при создании Landing page. ы научитесь определять и ставить задачи для любой страницы.
Занятие 3 Целевая аудитория.
Тема включает полную проработку целевой аудитории по проекту и анализ конкурентов. Вы получите и отработаете на собственном проекте один из самых главных навыков, который необходим для успешной работы с посадочными страницами. В вашем профессиональном арсенале появятся знания системного подхода к разбору целевой аудитории и конкурентов проекта
Занятие 4 Структура Landing page.
Фундаментальный блок курса, который даст вам навыки для построения правильной структуры успешных страниц
Занятие 5-6 Копирайтинг.
Вы научитесь быстро создавать эффективные тексты без творческих мук: принципы построения успешных текстов на странице от заголовков, оферов и продаж цены до мотивирующих призывов к действию
Занятие 7 Увеличение конверсии (элементы конверсии).
Детали от которых зависит конверсия. Кейсы. В этом блоке вы научитесь превращать посетителя в подписчика и клиента.
Занятие 8 Аналитика эффективности текста Landing page.
Аналитика и статистика. Правила проведения тестов. Измерение эффективности Landing Page. На этом занятии вы научитесь доказывать эффективность своей работы заказчику с помощью цифр.
Занятие 9 Аудит готовых работ.
В этом уроке разберем основные принципы А/Б тестирования страниц, для того, что бы увеличивать конверсию существующей страницы. Этот навык с каждым днем становится все более востребованным среди хороших специалистов.
Скриншоты:

_________________
Подпись отключена за нарушение правил форума
[Профиль] [ЛС]
ВКонтакте
FaceBook
Показать сообщения:    

Текущее время: Сегодня 03:17

Часовой пояс: GMT + 2



Вы не можете начинать темы
Вы не можете отвечать на сообщения
Вы не можете редактировать свои сообщения
Вы не можете удалять свои сообщения
Вы не можете голосовать в опросах
Вы не можете прикреплять файлы к сообщениям
Вы не можете скачивать файлы




покупка трафика на сайт