<
 
Статистика раздачи
Размер:  4.33 GB   |    Зарегистрирован:  3 года 3 месяца   |    Скачан:  0 раз
DL-List: Нет
Сидов:  0 (+2)  [  0 KB/s  ]   Личеров:  0 (+0)  [  0 KB/s  ]   Подробная статистика пиров
 
   
 
 
 
Автор Сообщение

Mad1966 ®

Пол:

Стаж: 5 лет 5 месяцев

Сообщений: 4864

Откуда: Украина

Торрент-статистика

- Изо всех сил / Over the Top (1987) DVD5
«Rocky, Rambo, Cobra And Now _Hawk_, In The Biggest Fight Of His Life»
- Производство: США / Cannon Group, Golan-Globus Productions Ltd., Warner Bros. Pictures
Жанр: Боевик, Драма, Спорт
Режиссер: Менахем Голан
Актеры: Сильвестр Сталлоне, Роберт Лоджа, Сьюзан Блейкли, Рик Цумвальт, Дэвид Менденхолл, Крис МакКарти, Терри Фанк, Боб Битти, Аллан Граф, Мэджик Шварц
Описание:
Водитель грузовика Линкольн Хоук, по прозвищу Ястреб, едет в Лас-Вегас на чемпионат мира по армрестлингу. У него много забот: надо встретиться и поговорить с бывшей женой, умирающей от странной болезни сердца; проведать, сломав ворота и разобравшись с телохранителями, любимого тестя и любой ценой заполучить сына, брошенного 10 лет назад. Сын, в начале принявший отца в штыки, станет опорой Ястреба и поможет ему выиграть чемпионат.

Возраст: 12+ (зрителям, достигшим 12 лет.)
Рейтинг MPAA: R (рекомендуется присутствие родителей)

Продолжительность: 01:33:31
Качество видео: DVD5
Перевод: Многоголосый закадровый, авторский
Язык субтитров: Русский, английский
Меню: Русский, статичное, озвученное, с анимированными вставками
Дополнительно: Бонусы: Трейлер, Анонс фильма Два "пасхальных яйца"
Видео: MPEG-2, 720x480@853х480, ~5619 kbps
Аудио 1: Русский, AC3, 2 ch,192 Kbps, 48.0 kHz (MVO, 20th Century Fox)
Аудио 2: Русский, AC3, 2 ch, 192 Kbps, 48.0 kHz (AVO, Андрей Гаврилов)
Аудио 3: Русский, AC3, 2 ch, 192 Kbps, 48.0 kHz (AVO, Юрий Немахов)
Аудио 4: Английский, AC3, 2 ch, 192 Kbps, 48.0 kHz (Оригинал)

DVDinfo&#58;

Title: Over_the_top_(rus) zapisan
Size: 4.33 Gb ( 4 542 928,00 KBytes ) - DVD-5
Enabled regions: 1, 2, 3, 4, 5, 6, 7, 8
VTS_01 :
  Play Length: 00:00:22
  Video: NTSC 16:9 (720x480) VBR, Auto Letterboxed
  Audio:
      English (Dolby AC3, 2 ch)
VTS_02 :
  Play Length: 00:00:01
  Video: NTSC 16:9 (720x480) VBR, Auto Letterboxed
  Audio:
      Not specified (LinearPCM, 2 ch)
VTS_03 :
  Play Length: 00:00:01
  Video: NTSC 16:9 (720x480) VBR, Auto Letterboxed
  Audio:
      Not specified (LinearPCM, 2 ch)
VTS_04 :
  Play Length: 00:00:01
  Video: NTSC 16:9 (720x480) VBR, Auto Letterboxed
  Audio:
      Not specified (LinearPCM, 2 ch)
VTS_05 :
  Play Length: 00:00:01
  Video: NTSC 16:9 (720x480) VBR, Auto Letterboxed
  Audio:
      Not specified (LinearPCM, 2 ch)
VTS_06 :
  Play Length: 00:00:01
  Video: NTSC 16:9 (720x480) VBR, Auto Letterboxed
  Audio:
      Not specified (LinearPCM, 2 ch)
VTS_07 :
  Play Length: 00:00:01
  Video: NTSC 16:9 (720x480) VBR, Auto Letterboxed
  Audio:
      Not specified (LinearPCM, 2 ch)
VTS_08 :
  Play Length: 00:00:01
  Video: NTSC 16:9 (720x480) VBR, Auto Letterboxed
  Audio:
      Not specified (LinearPCM, 2 ch)
VTS_09 :
  Play Length: 00:00:01
  Video: NTSC 16:9 (720x480) VBR, Auto Letterboxed
  Audio:
      Not specified (LinearPCM, 2 ch)
VTS_10 :
  Play Length: 00:00:05
  Video: NTSC 16:9 (720x480) VBR, Auto Letterboxed
  Audio:
      Not specified, LPCM, Delay = 0 mSec
VTS_11 :
  Play Length: 00:01:27
  Video: NTSC 16:9 (720x480) VBR, Auto Letterboxed
  Audio:
      English (Dolby AC3, 2 ch)
VTS_12 :
  Play Length: 01:33:31
  Video: NTSC 16:9 (720x480) VBR, Auto Letterboxed
  Audio:
      Russian (Dolby AC3, 6 ch)
      Russian (Dolby AC3, 6 ch)
      Russian (Dolby AC3, 6 ch)
      English (Dolby AC3, 6 ch)
  Subtitles:
      Russian
      English

Mediainfo&#58;

Общее
Полное имя                               : \Over_the_top_(rus) zapisan\VIDEO_TS\VTS_12_1.VOB
Формат                                   : MPEG-PS
Размер файла                             : 1024 Мбайт
Продолжительность                        : 21 м.
Режим общего битрейта                    : Переменный
Общий поток                              : 6516 Кбит/сек
Видео
Идентификатор                            : 224 (0xE0)
Формат                                   : MPEG Video
Версия формата                           : Version 2
Профиль формата                          : Main@Main
Параметр BVOP формата                    : Да
Параметр матрицы формата                 : Выборочная
Параметр GOP формата                     : M=3, N=12
Продолжительность                        : 21 м.
Вид битрейта                             : Переменный
Битрейт                                  : 5619 Кбит/сек
Максимальный битрейт                     : 7500 Кбит/сек
Ширина                                   : 720 пикселей
Высота                                   : 480 пикселей
Соотношение сторон                       : 16:9
Частота кадров                           : 23,976 кадра/сек
Стандарт вещания                         : NTSC
Цветовое пространство                    : YUV
Субдискретизация насыщенности            : 4:2:0
Битовая глубина                          : 8 бит
Тип развёртки                            : Прогрессивная
Порядок развёртки                        : 2:3 Pulldown
Метод сжатия                             : С потерями
Бит/(Пиксели*Кадры)                      : 0.678
Размер потока                            : 883 Мбайт (86%)
Аудио #1
Идентификатор                            : 189 (0xBD)-128 (0x80)
Формат                                   : AC-3
Формат/Информация                        : Audio Coding 3
Расширение режима                        : CM (complete main)
Параметр Endianness формата              : Big
Режим смешивания                         : DVD-Video
Продолжительность                        : 21 м.
Вид битрейта                             : Постоянный
Битрейт                                  : 192 Кбит/сек
Каналы                                   : 2 канала
Расположение каналов                     : Front: L R
Частота                                  : 48,0 КГц
Битовая глубина                          : 16 бит
Метод сжатия                             : С потерями
Размер потока                            : 30,2 Мбайт (3%)
Аудио #2
Идентификатор                            : 189 (0xBD)-129 (0x81)
Формат                                   : AC-3
Формат/Информация                        : Audio Coding 3
Расширение режима                        : CM (complete main)
Параметр Endianness формата              : Big
Режим смешивания                         : DVD-Video
Продолжительность                        : 21 м.
Вид битрейта                             : Постоянный
Битрейт                                  : 192 Кбит/сек
Каналы                                   : 2 канала
Расположение каналов                     : Front: L R
Частота                                  : 48,0 КГц
Битовая глубина                          : 16 бит
Метод сжатия                             : С потерями
Размер потока                            : 30,2 Мбайт (3%)
Аудио #3
Идентификатор                            : 189 (0xBD)-130 (0x82)
Формат                                   : AC-3
Формат/Информация                        : Audio Coding 3
Расширение режима                        : CM (complete main)
Параметр Endianness формата              : Big
Режим смешивания                         : DVD-Video
Продолжительность                        : 21 м.
Вид битрейта                             : Постоянный
Битрейт                                  : 192 Кбит/сек
Каналы                                   : 2 канала
Расположение каналов                     : Front: L R
Частота                                  : 48,0 КГц
Битовая глубина                          : 16 бит
Метод сжатия                             : С потерями
Размер потока                            : 30,2 Мбайт (3%)
Аудио #4
Идентификатор                            : 189 (0xBD)-131 (0x83)
Формат                                   : AC-3
Формат/Информация                        : Audio Coding 3
Расширение режима                        : CM (complete main)
Параметр Endianness формата              : Big
Режим смешивания                         : DVD-Video
Продолжительность                        : 21 м.
Вид битрейта                             : Постоянный
Битрейт                                  : 192 Кбит/сек
Каналы                                   : 2 канала
Расположение каналов                     : Front: L R
Частота                                  : 48,0 КГц
Битовая глубина                          : 16 бит
Метод сжатия                             : С потерями
Размер потока                            : 30,2 Мбайт (3%)
Текст #1
Идентификатор                            : 224 (0xE0)-CC3
Формат                                   : EIA-608
Режим смешивания                         : DVD-Video
Режим смешивания, доп. информация        : Muxed in Video #1
Вид битрейта                             : Постоянный
Размер потока                            : 0,00 байт (0%)
Текст #2
Идентификатор                            : 189 (0xBD)-32 (0x20)
Формат                                   : RLE
Формат/Информация                        : Run-length encoding
Режим смешивания                         : DVD-Video
Текст #3
Идентификатор                            : 189 (0xBD)-33 (0x21)
Формат                                   : RLE
Формат/Информация                        : Run-length encoding
Режим смешивания                         : DVD-Video
Меню
Скриншоты:

Скриншоты меню&#58;


[megatrack.top].t116046.torrent
 СЕРЕБРЯНАЯ РАЗДАЧА! СКАЧАННОЕ ЗАСЧИТЫВАЕТСЯ ТОЛЬКО НАПОЛОВИНУ! 
Торрент: Зарегистрирован   [ 2015-08-02 07:06 ]

Скачать torrent

------------------------------

46 KB

Статус: проверено
Скачан: Скачаны:
Размер: 4.33 GB
Оценка:  - (Голосов: 0)
Поблагодарили: 1  Спасибо   (список)
:
 
[Профиль] [ЛС]
Показать сообщения:    

Текущее время: Сегодня 04:24

Часовой пояс: GMT + 2



Вы не можете начинать темы
Вы не можете отвечать на сообщения
Вы не можете редактировать свои сообщения
Вы не можете удалять свои сообщения
Вы не можете голосовать в опросах
Вы не можете прикреплять файлы к сообщениям
Вы можете скачивать файлы




покупка трафика на сайт