<
 
Статистика раздачи
Размер:  606 MB   |    Зарегистрирован:  2 года 9 месяцев   |    Скачан:  9 раз
DL-List: Нет
Сидов:  0 (+7)  [  0 KB/s  ]   Личеров:  0 (+0)  [  0 KB/s  ]   Подробная статистика пиров
 
   
 
 
 
Автор Сообщение

Mad1966 ®

Пол:

Стаж: 4 года 11 месяцев

Сообщений: 5057

Откуда: Украина

Торрент-статистика

- Под облаком Хиросимы / Sous le nuage d"Hiroshima (2015) SATRip - Телекомпания: Франция, Nilaya Productions
Жанр: Документальный
Режиссер: Бертран Коллар
Описание:
6 и 9 августа 2015 года исполнилось 70 лет первым и единственным атомным бомбардировкам мирных граждан Хиросимы и Нагасаки. Все видели ужасающие кадры бомб, летящих в сторону городов, и фотографии самого взрыва. Но что происходило в тот день под радиоактивным облаком, окутавшим Хиросиму? Всего пять фотографий были сделаны 6 августа 1945 года вблизи эпицентра атомного взрыва. Они никогда не публиковались и являются единственными документами, свидетельствующими о реакции жителей Хиросимы на атаку. Используя новейшие технологии, авторы фильма смогли оживить эти неподвижные изображения...
Продолжительность: 00:50:10
Качество видео: SATRip
Перевод: Дублированный
Видео: Xvid, 704х416, ~1 550 Kbps
Аудио: MP3, 2 ch, 128 Kbps
Семпл: Скачать

Mediainfo&#58;

General
      Format : AVI
      Format/Info : Audio Video Interleave
      File size : 606 MiB
      Duration : 50mn 10s
      Overall bit rate : 1 688 Kbps
      Writing application : VirtualDubMod 1.5.10.3 | [url=http://www.virtualdub-fr.org]www.virtualdub-fr.org[/url] || (build 2550/release)
      Writing library : VirtualDubMod build 2550/release
   Video #0
      ID : 0
      Format : MPEG-4 Visual
      Format profile : Advanced Simple@L5
      Format settings, BVOP : 2
      Format settings, QPel : No
      Format settings, GMC : No warppoints
      Format settings, Matrix : Default (MPEG)
      Codec ID : XVID
      Codec ID/Hint : XviD
      Duration : 50mn 10s
      Bit rate : 1 550 Kbps
      Width : 704 pixels
      Height : 416 pixels
      Display aspect ratio : 1.692
      Frame rate : 25.000 fps
      Color space : YUV
      Chroma subsampling : 4:2:0
      Bit depth : 8 bits
      Scan type : Progressive
      Compression mode : Lossy
      Bits/(Pixel*Frame) : 0.212
      Stream size : 556 MiB (92%)
      Writing library : XviD 73
   Audio #1
      ID : 1
      Format : MPEG Audio
      Format version : Version 1
      Format profile : Layer 3
      Codec ID : 55
      Codec ID/Hint : MP3
      Duration : 50mn 10s
      Bit rate mode : Constant
      Bit rate : 128 Kbps
      Channel(s) : 2 channels
      Sampling rate : 48.0 KHz
      Compression mode : Lossy
      Stream size : 45.9 MiB (8%)
      Alignment : Aligned on interleaves
      Interleave, duration : 40 ms (1.00 video frame)
      Interleave, preload duration : 504 ms
      Writing library : LAME3.99r
      Encoding settings : -m s -V 4 -q 2 -lowpass 17 -b 128
Скриншоты:

[megatrack.top].t116100.torrent
Торрент: Зарегистрирован   [ 2015-08-02 14:17 ]

Скачать torrent

------------------------------

13 KB

Статус: проверено
Скачан: Скачаны:
Размер: 606 MB
Оценка:  5 (Голосов: 2)
Поблагодарили: 3  Спасибо   (список)
:
 
[Профиль] [ЛС]
Показать сообщения:    

Текущее время: Сегодня 14:54

Часовой пояс: GMT + 2



Вы не можете начинать темы
Вы не можете отвечать на сообщения
Вы не можете редактировать свои сообщения
Вы не можете удалять свои сообщения
Вы не можете голосовать в опросах
Вы не можете прикреплять файлы к сообщениям
Вы можете скачивать файлы




покупка трафика на сайт