<
 
Статистика раздачи
Размер:  2.25 GB   |    Зарегистрирован:  7 месяцев 5 дней   |    Скачан:  0 раз
DL-List: Нет
Сидов:  0 (+0)  [  0 KB/s  ]   Личеров:  0 (+0)  [  0 KB/s  ]   Подробная статистика пиров
 
   
 
 
 
Автор Сообщение

Yagd ®

Пол:

Стаж: 4 года 3 месяца

Сообщений: 14994

Торрент-статистика

-Малышарики- Информация о фильме
Название: Малышарики
Год выпуска: 2015-2016
Страна: Россия, Студия анимации «Петербург»
Жанр: Обучающий, мультфильм, рисованный, детский
Продолжительность: 44 х ~ 00:05:00
Перевод: не требуется
субтитры: отсутствуют
Режиссёр: Марина Мошкова
Озвучивали: Анна Геллер, Марианна Мокшина
Описание: Новый мультсериал «Малышарики» представили маленьким зрителям российские мультипликаторы. Он рассчитан на детскую аудиторию, возрастом от 0 до 4 лет. Многие уже знакомы с персонажами увлекательного и смешного мультика «Смешарики». И, наверное, всем интересно, какими были эти герои в детстве? Дети познакомятся с Нюшей и Барашем, Крошем, Ежиком, Лосяшем, и другими забавными персонажами.
Мир Малышариков – это простой и понятный мир увлечений, радости и заботы. В нем живут Малышарики, каждый из которых уже имеет свой особенный характер. Они всегда готовы придумать новую игру или поделиться своими знаниями и умениями. Малышарики говорят с малышами на одном удивительном – детском языке, поэтому всегда близки и понятны.
Доп. информация:
Семпл
Файл
Формат: AVI
Качество: WEBRip
Видео: 704x400 (1.76:1), 25 fps, XviD build 50 ~799 kbps avg, 0.11 bit/pixel
Аудио: 48 kHz, AC3 Dolby Digital, 2/0 (L,R) ch, ~192.00 kbps avg

MI

07. Красная шапочка. XviD-merci-.avi
Format : AVI
Format/Info : Audio Video Interleave
File size : 36.2 MiB
Duration : 5mn 3s
Overall bit rate : 1 002 Kbps
Writing application : VirtualDubMod 1.5.10.3 | www.virtualdub-fr.org || (build 2550/release)
Writing library : VirtualDubMod build 2550/release
Video
ID : 0
Format : MPEG-4 Visual
Format profile : Advanced Simple@L5
Format settings, BVOP : 1
Format settings, QPel : No
Format settings, GMC : No warppoints
Format settings, Matrix : Default (H.263)
Codec ID : XVID
Codec ID/Hint : XviD
Duration : 5mn 3s
Bit rate : 800 Kbps
Width : 704 pixels
Height : 400 pixels
Display aspect ratio : 16:9
Frame rate : 25.000 fps
Color space : YUV
Chroma subsampling : 4:2:0
Bit depth : 8 bits
Scan type : Progressive
Compression mode : Lossy
Bits/(Pixel*Frame) : 0.114
Stream size : 28.9 MiB (80%)
Writing library : XviD 1.2.1 (UTC 2008-12-04)
Audio
ID : 1
Format : AC-3
Format/Info : Audio Coding 3
Mode extension : CM (complete main)
Format settings, Endianness : Big
Codec ID : 2000
Duration : 5mn 3s
Bit rate mode : Constant
Bit rate : 192 Kbps
Channel(s) : 2 channels
Channel positions : Front: L R
Sampling rate : 48.0 KHz
Frame rate : 31.250 fps (1536 spf)
Compression mode : Lossy
Stream size : 6.94 MiB (19%)
Alignment : Split accross interleaves
Interleave, duration : 40 ms (1.00 video frame)
Interleave, preload duratio : 500 ms

Скриншоты


[megatrack.top].t141730.torrent
Торрент: Зарегистрирован   [ 2016-12-20 14:45 ]

Скачать torrent

------------------------------

19 KB

Статус: проверено
Скачан: Скачаны:
Размер: 2.25 GB
Оценка:  4.5 (Голосов: 2)
Поблагодарили: 3  Спасибо   (список)
:
 
[Профиль] [ЛС]
Показать сообщения:    

Текущее время: Сегодня 08:29

Часовой пояс: GMT + 2



Вы не можете начинать темы
Вы не можете отвечать на сообщения
Вы не можете редактировать свои сообщения
Вы не можете удалять свои сообщения
Вы не можете голосовать в опросах
Вы не можете прикреплять файлы к сообщениям
Вы можете скачивать файлы




покупка трафика на сайт