<
 
Статистика раздачи
Размер:  8.8 GB   |    Зарегистрирован:  1 год 1 месяц   |    Скачан:  0 раз
DL-List: Нет
Сидов:  0 (+3)  [  0 KB/s  ]   Личеров:  0 (+6)  [  0 KB/s  ]   Подробная статистика пиров
 
   
 
 
 
Автор Сообщение

model258 ®

Пол:

Стаж: 3 года 11 месяцев

Сообщений: 18073

Откуда: Харьков

Торрент-статистика

- Нация Z / Z Nation- Производство: США / Asylum, The, Go2 Digital Media
Жанр: ужасы, фантастика, боевик, драма
Режиссер: Крэйг Энглер, Джон Хайамс, Карл Шэфер
Актеры: Том Эверетт Скотт, Майкл Уэлш, Келлита Смит, Анастасия Баранова, Расселл Ходжкинсон, Кит Аллан и др.
Описание:
Спустя три года после того, как вирус зомби распространился и выпотрошил всю страну, команда героев должна перевезти необычный груз. Это - единственный выживший после непосредственного воздействия чумы. В Калифорнии последняя функционирующая вирусная лаборатория ждет его крови. Хотя антитела, которые он несет, являются последней надеждой мира получить вакцину, он скрывает мрачную тайну, которая угрожает им всем. Выживание человечества под угрозой, когда разношерстная группа предпринимает путешествие длиной в пять тысяч километров по опустошенной, постапокалиптической Америке.

Продолжительность: ~00:44:00 серия
Качество видео: HDTVrip
Перевод: Многоголосый закадровый, профессиональный | OMSKBIRD
Реклама: присутствуют аудио вставки рекламы
Видео: Xvid, 720x304 (2,35:1), ~1699 kbps
Аудио # 1 Rus: AC-3, 6 ch, 384 kbps - многоголосый закадровый
Аудио # 2 Eng: AC-3, 6 ch, 384 kbps - оригинал

Mediainfo&#58;

General
Complete name                            : F:\Мои Документы\Видео\РАЗДАЧИ\Нация\Z Nation s03 HDTVrip (OMSKBIRD)\Z Nation s03e01 HDTVrip (OMSKBIRD).avi
Format                                   : AVI
Format/Info                              : Audio Video Interleave
File size                                : 1.47 GiB
Duration                                 : 1h 25mn
Overall bit rate                         : 2 481 Kbps
Writing application                      : VirtualDubMod 1.5.10.3 | [url=http://www.virtualdub-fr.org]www.virtualdub-fr.org[/url] || (build 2550/release)
Writing library                          : VirtualDubMod build 2550/release
Video
ID                                       : 0
Format                                   : MPEG-4 Visual
Format profile                           : Advanced Simple@L5
Format settings, BVOP                    : 1
Format settings, QPel                    : No
Format settings, GMC                     : No warppoints
Format settings, Matrix                  : Default (MPEG)
Codec ID                                 : XVID
Codec ID/Hint                            : XviD
Duration                                 : 1h 25mn
Bit rate                                 : 1 699 Kbps
Width                                    : 720 pixels
Height                                   : 304 pixels
Display aspect ratio                     : 2.35:1
Frame rate                               : 23.976 fps
Color space                              : YUV
Chroma subsampling                       : 4:2:0
Bit depth                                : 8 bits
Scan type                                : Progressive
Compression mode                         : Lossy
Bits/(Pixel*Frame)                       : 0.324
Stream size                              : 1.01 GiB (68%)
Writing library                          : XviD 1.2.1 (UTC 2008-12-04)
Audio #1
ID                                       : 1
Format                                   : AC-3
Format/Info                              : Audio Coding 3
Mode extension                           : CM (complete main)
Format settings, Endianness              : Big
Codec ID                                 : 2000
Duration                                 : 1h 25mn
Bit rate mode                            : Constant
Bit rate                                 : 384 Kbps
Channel(s)                               : 6 channels
Channel positions                        : Front: L C R, Side: L R, LFE
Sampling rate                            : 48.0 KHz
Bit depth                                : 16 bits
Compression mode                         : Lossy
Stream size                              : 234 MiB (15%)
Alignment                                : Split accross interleaves
Interleave, duration                     : 42 ms (1.00 video frame)
Interleave, preload duration             : 500 ms
Audio #2
ID                                       : 2
Format                                   : AC-3
Format/Info                              : Audio Coding 3
Mode extension                           : CM (complete main)
Format settings, Endianness              : Big
Codec ID                                 : 2000
Duration                                 : 1h 25mn
Bit rate mode                            : Constant
Bit rate                                 : 384 Kbps
Channel(s)                               : 6 channels
Channel positions                        : Front: L C R, Side: L R, LFE
Sampling rate                            : 48.0 KHz
Bit depth                                : 16 bits
Compression mode                         : Lossy
Stream size                              : 234 MiB (15%)
Alignment                                : Split accross interleaves
Interleave, duration                     : 42 ms (1.00 video frame)
Interleave, preload duration             : 500 ms

Подготовка релиза&#58;

Перевод • Анна Якименко
Роли озвучивали • Павел Ярощик, Алексей Гнеушев, Ольга Федорова
Звукорежиссер • Павел Квентов
Постер • Ксения Просветова
Релиз подготовил • Gater

Внимание! Раздача ведётся путём добавления новых серий

Внимание! Раздача ведётся путём добавления новых серий; при каждом добавлении создаётся новый торрент.
Чтобы начать докачку новой серии, пользователям необходимо сделать следующее:
1. Остановить скачивание;
2. Удалить старый торрент у себя из клиента (старые серии удалять не надо);
3. Скачать новый торрент и запустить его у себя в клиенте вместо старого, при этом указать клиенту путь в старую папку куда и должно происходить скачивание новых серий. Ваш клиент при этом должен произвести хеширование (проверку) старой папки и будет докачивать только те серии, которых у вас ещё нет. Старые серии при этом не удаляются, а продолжают раздаваться! Eсли вы уже удалили старые серии, то предотвратить повторную закачку старых серий можно, отжав галочку в соответствующих местах при запуске нового торрента.
Скриншоты:

[megatrack.top].t151701.torrent
Торрент: Зарегистрирован   [ 2016-11-27 13:19 ]

Скачать torrent

------------------------------

24 KB

Статус: проверено
Скачан: Скачаны:
Размер: 8.8 GB
Оценка:  - (Голосов: 0)
Поблагодарили: 0  Спасибо
:
 
[Профиль] [ЛС]
Показать сообщения:    

Текущее время: Сегодня 12:09

Часовой пояс: GMT + 2



Вы не можете начинать темы
Вы не можете отвечать на сообщения
Вы не можете редактировать свои сообщения
Вы не можете удалять свои сообщения
Вы не можете голосовать в опросах
Вы не можете прикреплять файлы к сообщениям
Вы можете скачивать файлы




покупка трафика на сайт