<
 
Статистика раздачи
Размер:  196 MB   |    Зарегистрирован:  1 год 9 месяцев   |    Скачан:  2 раза
DL-List: Нет
Сидов:  0 (+46)  [  0 KB/s  ]   Личеров:  0 (+2)  [  0 KB/s  ]   Подробная статистика пиров
 
   
 
 
 
Автор Сообщение

model258 ®

Пол:

Стаж: 4 года 5 месяцев

Сообщений: 16038

Откуда: Харьков

Торрент-статистика

- Сказочная Русь (2016.11.04) WEB-DLRip (сезон 8, серия 4) - Телекомпания: 1+1
Жанр: анимационный сериал, политика
Режиссер: Владимир Зеленский
В ролях: Владимир Зеленский, Виктор Янукович, Николай Азаров, Виктор Ющенко, Наталия Королевская, Юлия Тимошенко, Владимир Литвин, Савик Шустер, Виталий Кличко ...
Описание:
Мультфильм выполнен очень качественно, Мы покажем политиков и медийщиков, которые предстанут в виде сказочных персонажей. Рубрика будет абсолютно без цензуры, - приоткрыл завесу Зеленский.
Продолжительность: ~ 00:14:08
Качество видео: WEB-DLRip
Субтитры: Отсутствуют
Видео: MPEG4, XviD, 720x400 (16:9), 25.000 fps, 1 797 Kbps (0.250 bit/pixel)
Аудио: MP3, 44.1 KHz, 2 ch, 128 Kbps, CBR

MediaInfo

Общее
Полное имя                               : D:\[1]\Сказочная Русь\Сказочная Русь. Сезон 8. Серия 04 (2016.11.04).avi
Формат                                   : AVI
Формат/Информация                        : Audio Video Interleave
Размер файла                             : 196 Мбайт
Продолжительность                        : 14 м.
Общий поток                              : 1935 Кбит/сек
Программа кодирования                    : VirtualDubMod 1.5.10.3 | [url=http://www.virtualdub-fr.org]www.virtualdub-fr.org[/url] || (build 2550/release)
Библиотека кодирования                   : VirtualDubMod build 2550/release
Видео
Идентификатор                            : 0
Формат                                   : MPEG-4 Visual
Профиль формата                          : Advanced Simple@L5
Параметр BVOP формата                    : 2
Параметр QPel формата                    : Нет
Параметр GMC формата                     : Без точки перехода
Параметр матрицы формата                 : Default (H.263)
Идентификатор кодека                     : XVID
Идентификатор кодека/Подсказка           : XviD
Продолжительность                        : 14 м.
Битрейт                                  : 1797 Кбит/сек
Ширина                                   : 720 пикселей
Высота                                   : 400 пикселей
Соотношение сторон                       : 16:9
Частота кадров                           : 25,000 кадров/сек
Цветовое пространство                    : YUV
Субдискретизация насыщенности            : 4:2:0
Битовая глубина                          : 8 бит
Тип развёртки                            : Прогрессивная
Метод сжатия                             : С потерями
Бит/(Пиксели*Кадры)                      : 0.250
Размер потока                            : 182 Мбайт (93%)
Библиотека кодирования                   : XviD 1.2.1 (UTC 2008-12-04)
Аудио
Идентификатор                            : 1
Формат                                   : MPEG Audio
Версия формата                           : Version 1
Профиль формата                          : Layer 3
Режим                                    : Joint stereo
Расширение режима                        : MS Stereo
Идентификатор кодека                     : 55
Идентификатор кодека/Подсказка           : MP3
Продолжительность                        : 14 м.
Вид битрейта                             : Постоянный
Битрейт                                  : 128 Кбит/сек
Каналы                                   : 2 канала
Частота                                  : 44,1 КГц
Метод сжатия                             : С потерями
Размер потока                            : 12,9 Мбайт (7%)
Выравнивание                             : Разделение по промежуткам
Продолжительность промежутка             : 40  мс. (1,00 видеокадр)
Время предзагрузки промежутка            : 500  мс.
Библиотека кодирования                   : LAME3.99r
Настройки программы                      : -m j -V 4 -q 2 -lowpass 17 -b 128
Скриншоты:

[megatrack.top].t154046.torrent
Торрент: Зарегистрирован   [ 2016-11-05 14:09 ]

Скачать torrent

------------------------------

16 KB

Статус: проверено
Скачан: Скачаны:
Размер: 196 MB
Оценка:  - (Голосов: 0)
Поблагодарили: 0  Спасибо
:
 
[Профиль] [ЛС]
Показать сообщения:    

Текущее время: Сегодня 22:02

Часовой пояс: GMT + 2



Вы не можете начинать темы
Вы не можете отвечать на сообщения
Вы не можете редактировать свои сообщения
Вы не можете удалять свои сообщения
Вы не можете голосовать в опросах
Вы не можете прикреплять файлы к сообщениям
Вы можете скачивать файлы




покупка трафика на сайт