<
 
Статистика раздачи
Размер:  4.04 GB   |    Зарегистрирован:  1 год   |    Скачан:  0 раз
DL-List: Нет
Сидов:  0 (+0)  [  0 KB/s  ]   Личеров:  0 (+0)  [  0 KB/s  ]   Подробная статистика пиров
 
   
 
 
 
Автор Сообщение

Yagd ®

Пол:

Стаж: 4 года 8 месяцев

Сообщений: 14441

Торрент-статистика

- Симпсоны / The Simpsons (2016) WEB-DLRip (сезон 28, серии 1-9 из 22) OmskBird - Производство: США
Жанр: Мультфильм, комедия
Режиссер: Марк Керклэнд, Стивен Дин Мур, Боб Андерсон
Персонажи: Дэн Кастелланета, Джули Кавнер, Нэнси Картрайт, Ярдли Смит, Гарри Ширер, Хэнк Азария, Памела Хейден, Тресс МакНилл, Карл Видерготт, Мэгги Росвэлл и др.
Описание:
«Симпсоны» - это пародия на всех и вся, и на типичный американский уклад жизни в целом. Главные герои этого мультсериала - показательная в своей типичности семья Симпсонов - обжора и лежебока, недалекий Гомер, его жена-умница домохозяйка Мардж, их дети сорванец Барт, одаренная умная девочка Лиза и совсем еще младенец Мэгги. Каждая серия не только богата юмором, но и высмеивает одну из волнующих современного человека тем, так что сериал с успехом пережил более 25 сезонов и продолжает успешное шествие по экранам. Отрезки, шутки, сами герои Симпсонов стали неотъемлемой частью современной поп-культуры, а их имена стали именами нарицательными.

Релиз от: OMSKBIRD
Продолжительность: ~00:22:00
Качество видео: WEB-DLRip
Перевод: Многоголосый закадровый, профессиональный
Озвучка / Автор перевода: OMSKBIRD
Вид субтитров: Отсутствуют
Реклама: присутствуют аудио вставки рекламы
Видео: 720x400 (1.80:1), 23.976 fps, XviD build 73 ~2000 kbps avg, 0.29 bit/pixel
Аудио rus: AC3, 6 ch, 384 kbps, CBR
Аудио eng: AC3, 6 ch, 384 kbps, CBR

MediaInfo

General
Complete name : G:\Films\The.Simpsons.S28.400p.OmskBird\The.Simpsons.S28E01.WEB-DLRip.OmskBird.avi
Format : AVI
Format/Info : Audio Video Interleave
File size : 453 MiB
Duration : 22mn 49s
Overall bit rate : 2 773 Kbps
Writing application : VirtualDubMod 1.5.10.3 (build 2550/release)
Writing library : VirtualDubMod build 2550/release
Video
ID : 0
Format : MPEG-4 Visual
Format profile : Advanced Simple@L5
Format settings, BVOP : 1
Format settings, QPel : No
Format settings, GMC : No warppoints
Format settings, Matrix : Default (MPEG)
Codec ID : XVID
Codec ID/Hint : XviD
Duration : 22mn 49s
Bit rate : 1 991 Kbps
Width : 720 pixels
Height : 400 pixels
Display aspect ratio : 16:9
Frame rate : 23.976 (23976/1000) fps
Color space : YUV
Chroma subsampling : 4:2:0
Bit depth : 8 bits
Scan type : Progressive
Compression mode : Lossy
Bits/(Pixel*Frame) : 0.288
Stream size : 325 MiB (72%)
Writing library : XviD 73
Audio #1
ID : 1
Format : AC-3
Format/Info : Audio Coding 3
Mode extension : CM (complete main)
Format settings, Endianness : Big
Codec ID : 2000
Duration : 22mn 49s
Bit rate mode : Constant
Bit rate : 384 Kbps
Channel(s) : 6 channels
Channel positions : Front: L C R, Side: L R, LFE
Sampling rate : 48.0 KHz
Frame rate : 31.250 fps (1536 spf)
Compression mode : Lossy
Stream size : 62.7 MiB (14%)
Alignment : Split accross interleaves
Interleave, duration : 42 ms (1.00 video frame)
Interleave, preload duration : 500 ms
Audio #2
ID : 2
Format : AC-3
Format/Info : Audio Coding 3
Mode extension : CM (complete main)
Format settings, Endianness : Big
Codec ID : 2000
Duration : 22mn 49s
Bit rate mode : Constant
Bit rate : 384 Kbps
Channel(s) : 6 channels
Channel positions : Front: L C R, Side: L R, LFE
Sampling rate : 48.0 KHz
Frame rate : 31.250 fps (1536 spf)
Compression mode : Lossy
Stream size : 62.7 MiB (14%)
Alignment : Split accross interleaves
Interleave, duration : 42 ms (1.00 video frame)
Interleave, preload duration : 500 ms

Список серий&#58;

01. Monty Burns" Fleeing Circus
02. Friends and Family
03. The Town
04. Treehouse of Horror XXVII
05. Trust But Clarify
06. There Will Be Buds
07. Havana Wild Weekend

Релиз подготовили

Релиз-группа: OmskBird
Роли озвучивали • Ольга Федорова, Павел Ярощик, Станислав Черсков, Артем Мустаев, Алена Соколова
Перевод • Дарья Жмура
Звукорежиссер • Павел Квентов

Раздача ведётся путём добавления новых серий&#58;

Раздача ведётся путём добавления новых серий; при каждом добавлении создаётся новый торрент. Чтобы начать докачку новой серии, пользователям необходимо сделать следующее:
(1) остановить скачивание,
(2) удалить старый торрент у себя из клиента (старые серии удалять не надо),
(3) скачать новый торрент и запустить его у себя в клиенте вместо старого, при этом указать клиенту путь в старую папку куда и должно происходить скачивание новых серий.
Ваш клиент при этом должен произвести хеширование (проверку) старой папки (если не производит сам - помогите ему сделать это), и будет докачивать только те серии которых у вас ещё нет. Старые серии при этом не удаляются, а продолжают раздаваться!
Eсли вы уже удалили старые серии, то предотвратить повторную закачку старых серий можно, отжав галочку в соответствующих местах при запуске нового торрента. По возможности, желательно не удалять старые серии как можно дольше чтобы релизёр не столько продолжал раздавать старые серии, а смог сконцентрироваться на новых.
Скриншоты:

[megatrack.top].t154679.torrent
Торрент: Зарегистрирован   [ 2016-12-07 08:35 ]

Скачать torrent

------------------------------

12 KB

Статус: проверено
Скачан: Скачаны:
Размер: 4.04 GB
Оценка:  4.7 (Голосов: 3)
Поблагодарили: 3  Спасибо   (список)
:
 
[Профиль] [ЛС]
Показать сообщения:    

Текущее время: Сегодня 02:36

Часовой пояс: GMT + 2



Вы не можете начинать темы
Вы не можете отвечать на сообщения
Вы не можете редактировать свои сообщения
Вы не можете удалять свои сообщения
Вы не можете голосовать в опросах
Вы не можете прикреплять файлы к сообщениям
Вы можете скачивать файлы




покупка трафика на сайт