<
 
Статистика раздачи
Размер:  6.65 GB   |    Зарегистрирован:  7 месяцев 26 дней   |    Скачан:  0 раз
DL-List: Нет
Сидов:  0 (+0)  [  0 KB/s  ]   Личеров:  0 (+0)  [  0 KB/s  ]   Подробная статистика пиров
 
   
 
 
 
Автор Сообщение

Yagd ®

Пол:

Стаж: 4 года 3 месяца

Сообщений: 14994

Торрент-статистика

- Страж-лев / Львиная Гвардия / Хранитель Лев / The Lion Guard (2016) SATRip- Производство: США, Disney Television Animation, Lioness Productions
Жанр: Мультсериал, комедия, мюзикл, семейный, приключения
Режиссер: Хауи Паркинс
Актеры: Джефф Беннетт, Дусан Браун, Макс Чарльз, Сара Хайланд, Джеймс Эрл Джонс, Эндрю Кисино, Роб Лоу, Хари Пэйтон, Мэдисон Петтис, Джонни Рис, Иден Ригел, Джошуа Раш, Эрни Сабелла, Кевин Шон, Аттикус Шаффер, Гэбриэл Юнион, Даймонд Уайт
Описание:
Львёнок по имени Кион — второй детёныш Симбы и Налы, младший брат Киары. Пришло время, когда он неожиданно для себя овладел рыком древних — способностью всех вторых детей в королевской семье, благодаря которой они становятся лидерами львиной гвардии. Львиная гвардия — отряд из пяти львов, защищающих земли Прайда и круг жизни: самого свирепого (лидера), самого смелого, самого сильного, самого быстрого и самого зоркого. Но вместо того, чтобы собрать отряд львов, Кион собрал отряд самых разных животных, в чьих способностях и верности был уверен.

Возраст: 0+ (для любой зрительской аудитории)
Рейтинг MPAA: G (нет возрастных ограничений)
Дата мировой премьеры: 15 января 2016
Дата премьеры в РФ: 10 сентября 2016

Продолжительность: ~ 00:22:00 серия
Качество видео: SATRip
Перевод: Дублированный
Субтитры: Отсутствуют
Видео: MPEG4, XviD, 720x400 (16:9), 25.000 fps, 1 807 Kbps (0.251 bit/pixel)
Аудио: AC-3, 48.0 KHz, 2 ch, 192 Kbps, CBR

MediaInfo

Общее
Полное имя                               : D:\[1]\Мультфильмы\Страж лев\Страж-лев (Львиная Гвардия) - The Lion Guard (2016)\Страж-лев - The Lion Guard. Серия 02 (2016).avi
Формат                                   : AVI
Формат/Информация                        : Audio Video Interleave
Размер файла                             : 310 Мбайт
Продолжительность                        : 21 м.
Общий поток                              : 2008 Кбит/сек
Программа кодирования                    : VirtualDubMod 1.5.10.3 | [url=http://www.virtualdub-fr.org]www.virtualdub-fr.org[/url] || (build 2550/release)
Библиотека кодирования                   : VirtualDubMod build 2550/release
Видео
Идентификатор                            : 0
Формат                                   : MPEG-4 Visual
Профиль формата                          : Advanced Simple@L5
Параметр BVOP формата                    : 2
Параметр QPel формата                    : Нет
Параметр GMC формата                     : Без точки перехода
Параметр матрицы формата                 : Default (MPEG)
Идентификатор кодека                     : XVID
Идентификатор кодека/Подсказка           : XviD
Продолжительность                        : 21 м.
Битрейт                                  : 1807 Кбит/сек
Ширина                                   : 720 пикселей
Высота                                   : 400 пикселей
Соотношение сторон                       : 16:9
Частота кадров                           : 25,000 кадров/сек
Цветовое пространство                    : YUV
Субдискретизация насыщенности            : 4:2:0
Битовая глубина                          : 8 бит
Тип развёртки                            : Прогрессивная
Метод сжатия                             : С потерями
Бит/(Пиксели*Кадры)                      : 0.251
Размер потока                            : 279 Мбайт (90%)
Библиотека кодирования                   : XviD 1.2.1 (UTC 2008-12-04)
Аудио
Идентификатор                            : 1
Формат                                   : AC-3
Формат/Информация                        : Audio Coding 3
Расширение режима                        : CM (complete main)
Параметр Endianness формата              : Big
Идентификатор кодека                     : 2000
Продолжительность                        : 21 м.
Вид битрейта                             : Постоянный
Битрейт                                  : 192 Кбит/сек
Каналы                                   : 2 канала
Расположение каналов                     : Front: L R
Частота                                  : 48,0 КГц
Битовая глубина                          : 16 бит
Метод сжатия                             : С потерями
Размер потока                            : 29,7 Мбайт (10%)
Выравнивание                             : Разделение по промежуткам
Продолжительность промежутка             : 40  мс. (1,00 видеокадр)
Время предзагрузки промежутка            : 500  мс.
Скриншоты:

[megatrack.top].t155422.torrent
Торрент: Зарегистрирован   [ 2016-11-29 09:59 ]

Скачать torrent

------------------------------

36 KB

Статус: проверено
Скачан: Скачаны:
Размер: 6.65 GB
Оценка:  - (Голосов: 0)
Поблагодарили: 0  Спасибо
:
 
[Профиль] [ЛС]
Показать сообщения:    

Текущее время: Сегодня 08:38

Часовой пояс: GMT + 2



Вы не можете начинать темы
Вы не можете отвечать на сообщения
Вы не можете редактировать свои сообщения
Вы не можете удалять свои сообщения
Вы не можете голосовать в опросах
Вы не можете прикреплять файлы к сообщениям
Вы можете скачивать файлы




покупка трафика на сайт