<
 
Статистика раздачи
Размер:  3.02 GB   |    Зарегистрирован:  10 месяцев 19 дней   |    Скачан:  3 раза
DL-List: Нет
Сидов:  0 (+96)  [  0 KB/s  ]   Личеров:  0 (+53)  [  0 KB/s  ]   Подробная статистика пиров
 
   
 
 
 
Автор Сообщение

Yagd ®

Пол:

Стаж: 4 года 6 месяцев

Сообщений: 14964

Торрент-статистика

- Синдбад. Пираты семи штормов (2016) WEB-DL [H.264/1080p-LQ]- Производство: Россия, Кинокомпания СТВ, Анимационная студия Мельница
Жанр: Детский
Режиссер: Владлен Барбэ
Актёры: Андрей Лёвин, Катерина Шпица, Дмитрий Нагиев, Марина Лисовец, Диомид Виноградов, Юрий Стоянов, Андрей Кайков, Эдуард Радзюкевич, Игорь Лифанов, Илья Лыков.
Описание:
Синдбад, молодой веселый пират, не очень удачлив в пиратском промысле — за год ему и его команде не удалось захватить ни одного корабля. Но судьба улыбается Синдбаду: старик Антиох показывает ему старинную карту и предлагает плыть на остров Скелета, где хранятся сокровища. Синдбад не знает, что этот Антиох — волшебник, который преследует свои корыстные планы...

Возраст: 6+ (зрителям, достигшим 6 лет)
Дата российской премьеры: 27 октября 2016, «Наше Кино»
Продолжительность: 01:17:30
Качество видео: WEB-DL 1080p
Перевод: Не требуется (iTunes)
Вид субтитров: Отсутствуют
Видео: AVC/H.264, 1920х1038, ~5087 Kbps
Аудио: AC3, 6 ch, 384 Kbps

MediaInfo

General
Unique ID : 254191448173528119750794837728020789914 (0xBF3B7DFE7D602D879877498D8C19FA9A)
Complete name : E:\Sindbat.2016.WEB-DL.1080p.mkv
Format : Matroska
Format version : Version 2
File size : 3.02 GiB
Duration : 1h 17mn
Overall bit rate : 5 582 Kbps
Encoded date : UTC 2016-11-28 20:49:25
Writing application : mkvmerge v8.3.0 ("Over the Horizon") 64bit
Writing library : libebml v1.3.1 + libmatroska v1.4.2
DURATION : 01:17:30.592000000
NUMBER_OF_FRAMES : 145331
NUMBER_OF_BYTES : 223228416
_STATISTICS_WRITING_APP : mkvmerge v8.3.0 ("Over the Horizon") 64bit
_STATISTICS_WRITING_DATE_UTC : 2016-11-28 20:49:25
_STATISTICS_TAGS : BPS DURATION NUMBER_OF_FRAMES NUMBER_OF_BYTES
Video
ID : 1
Format : AVC
Format/Info : Advanced Video Codec
Format profile : High@L4
Format settings, CABAC : Yes
Format settings, ReFrames : 4 frames
Format settings, GOP : N=1
Codec ID : V_MPEG4/ISO/AVC
Duration : 1h 17mn
Bit rate : 5 087 Kbps
Width : 1 920 pixels
Height : 1 038 pixels
Display aspect ratio : 1.85:1
Frame rate mode : Constant
Frame rate : 24.000 fps
Color space : YUV
Chroma subsampling : 4:2:0
Bit depth : 8 bits
Scan type : Progressive
Bits/(Pixel*Frame) : 0.106
Stream size : 2.75 GiB (91%)
Language : English
Default : Yes
Forced : No
Color range : Limited
Color primaries : BT.709
Transfer characteristics : BT.709
Matrix coefficients : BT.709
Audio
ID : 2
Format : AC-3
Format/Info : Audio Coding 3
Mode extension : CM (complete main)
Format settings, Endianness : Big
Codec ID : A_AC3
Duration : 1h 17mn
Bit rate mode : Constant
Bit rate : 384 Kbps
Channel(s) : 6 channels
Channel positions : Front: L C R, Side: L R, LFE
Sampling rate : 48.0 KHz
Compression mode : Lossy
Stream size : 213 MiB (7%)
Language : Russian
Default : Yes
Forced : No
Скриншоты:

[megatrack.top].t155436.torrent
Торрент: Зарегистрирован   [ 2016-11-29 10:28 ]

Скачать torrent

------------------------------

16 KB

Статус: проверено
Скачан: Скачаны:
Размер: 3.02 GB
Оценка:  - (Голосов: 0)
Поблагодарили: 1  Спасибо   (список)
:
 
[Профиль] [ЛС]
Показать сообщения:    

Текущее время: Сегодня 16:52

Часовой пояс: GMT + 2



Вы не можете начинать темы
Вы не можете отвечать на сообщения
Вы не можете редактировать свои сообщения
Вы не можете удалять свои сообщения
Вы не можете голосовать в опросах
Вы не можете прикреплять файлы к сообщениям
Вы можете скачивать файлы




покупка трафика на сайт