Статистика раздачи
Скачали: [ 1 ]
Размер:  4.36 GB   |    Зарегистрирован:  3 месяца 23 дня   |    Скачан:  1 раз
Сидов:  0 (+2)  [  0 KB/s  ]   Личеров:  0 (+1)  [  0 KB/s  ]   Подробная статистика пиров
 
   
 
 
 
Автор Сообщение

Yagd ®

Пол:

Стаж: 3 года 11 месяцев

Сообщений: 15051

Торрент-статистика

-Полный расколбас / Sausage Party (2016) BDRip«Стоять до конца!»- Производство: США / Columbia Pictures, Annapurna Pictures, Nitrogen Studios Canada
Жанр: Мультфильм для взрослых, Фэнтези, Комедия, Приключения
Режиссер: Грег Тирнан, Конрад Вернон
Персонажи: Сет Роген, Кристен Уиг, Джона Хилл, Билл Хейдер, Майкл Сера, Джеймс Франко, Дэнни МакБрайд, Крэйг Робинсон, Пол Радд, Ник Кролл
Описание:
Первая анимационная комедия для взрослых о невероятных приключениях еды из супермаркета. Съедобным друзьям предстоит получить ответ на главный вопрос: есть ли жизнь за стенами супермаркета, и что же происходит с продуктами после того, как они попадают к людям домой?

Возраст: 18+ (зрителям, достигшим 18 лет. запрещено для детей)
Рейтинг MPAA: R (лицам до 17 лет обязательно присутствие взрослого)
Дата мировой премьеры: 14 марта 2016
Дата российской премьеры: 8 сентября 2016, «WDSSPR»
Продолжительность: 01:28:45
Качество видео: BDRip
Перевод: Дублированный (Лицензия BD CEE)
Язык субтитров: Русский (Forced, Full), Английский (Full)
Вид субтитров: Вшитые отключаемые
Видео: AVC/H.264, 1920x1036 (1.85:1), ~6602 Kbps
Аудио: AC3, 6 ch, 448 Kbps, CBR

MediaInfo

Общее
Уникальный идентификатор : 235290663082947614814091224708189323256 (0xB103555783C0A9C18C9145725D14FFF8)
Формат : Matroska
Версия формата : Version 4 / Version 2
Размер файла : 4,36 Гбайт
Продолжительность : 1 ч. 28 м.
Общий поток : 7036 Кбит/сек
Название фильма : Полный расколбас / Sausage Party (2016)
Дата кодирования : UTC 2016-11-28 18:10:28
Программа кодирования : mkvmerge v9.5.0 ("Quiet Fire") 64bit
Библиотека кодирования : libebml v1.3.4 + libmatroska v1.4.5
Обложка : Yes
Attachments : cover.jpg
Видео
Идентификатор : 1
Формат : AVC
Формат/Информация : Advanced Video Codec
Профиль формата : [url=mailto:[email protected]][email protected][/url]
Параметр CABAC формата : Да
Параметр ReFrames формата : 4 кадра
Идентификатор кодека : V_MPEG4/ISO/AVC
Продолжительность : 1 ч. 28 м.
Битрейт : 6602 Кбит/сек
Ширина : 1920 пикселей
Высота : 1036 пикселей
Соотношение сторон : 1,85:1
Режим частоты кадров : Постоянный
Частота кадров : 23,976 (24000/1001) кадра/сек
Цветовое пространство : YUV
Субдискретизация насыщенности : 4:2:0
Битовая глубина : 8 бит
Тип развёртки : Прогрессивная
Бит/(Пиксели*Кадры) : 0.138
Размер потока : 4,08 Гбайт (94%)
Заголовок : Полный расколбас / Sausage Party [2016]
Библиотека кодирования : x264 core 146 r2538 121396c
Настройки программы : cabac=1 / ref=4 / deblock=1:-1:-1 / analyse=0x3:0x113 / me=umh / subme=11 / psy=1 / psy_rd=1.00:0.00 / mixed_ref=1 / me_range=32 / chroma_me=1 / trellis=2 / 8x8dct=1 / cqm=0 / deadzone=21,11 / fast_pskip=0 / chroma_qp_offset=-2 / threads=3 / lookahead_threads=1 / sliced_threads=0 / nr=0 / decimate=1 / interlaced=0 / bluray_compat=0 / constrained_intra=0 / bframes=8 / b_pyramid=2 / b_adapt=2 / b_bias=0 / direct=3 / weightb=1 / open_gop=0 / weightp=2 / keyint=250 / keyint_min=23 / scenecut=40 / intra_refresh=0 / rc_lookahead=60 / rc=2pass / mbtree=0 / bitrate=6602 / ratetol=1.0 / qcomp=0.60 / qpmin=0 / qpmax=69 / qpstep=4 / cplxblur=20.0 / qblur=0.5 / vbv_maxrate=14000 / vbv_bufsize=14000 / nal_hrd=none / filler=0 / ip_ratio=1.40 / pb_ratio=1.30 / aq=2:1.00
Язык : English
Default : Да
Forced : Нет
Аудио
Идентификатор : 2
Формат : AC-3
Формат/Информация : Audio Coding 3
Расширение режима : CM (complete main)
Параметр Endianness формата : Big
Идентификатор кодека : A_AC3
Продолжительность : 1 ч. 28 м.
Вид битрейта : Постоянный
Битрейт : 448 Кбит/сек
Каналы : 6 каналов
Расположение каналов : Front: L C R, Side: L R, LFE
Частота : 48,0 КГц
Частота кадров : 31,250 кадров/сек (1536 spf)
Битовая глубина : 16 бит
Метод сжатия : С потерями
Размер потока : 284 Мбайт (6%)
Заголовок : Дубляж [Лицензия BD CEE]
Язык : Russian
Default : Да
Forced : Нет
Текст #1
Идентификатор : 3
Формат : UTF-8
Идентификатор кодека : S_TEXT/UTF8
Идентификатор кодека/Информация : UTF-8 Plain Text
Продолжительность : 1 ч. 22 м.
Битрейт : 4 бит/сек
Count of elements : 57
Размер потока : 2,76 Кбайт (0%)
Заголовок : Forced
Язык : Russian
Default : Да
Forced : Нет
Текст #2
Идентификатор : 4
Формат : UTF-8
Идентификатор кодека : S_TEXT/UTF8
Идентификатор кодека/Информация : UTF-8 Plain Text
Продолжительность : 1 ч. 22 м.
Битрейт : 130 бит/сек
Count of elements : 1416
Размер потока : 79,0 Кбайт (0%)
Заголовок : Full
Язык : Russian
Default : Нет
Forced : Нет
Текст #3
Идентификатор : 5
Формат : UTF-8
Идентификатор кодека : S_TEXT/UTF8
Идентификатор кодека/Информация : UTF-8 Plain Text
Продолжительность : 1 ч. 20 м.
Битрейт : 83 бит/сек
Count of elements : 1357
Размер потока : 48,8 Кбайт (0%)
Заголовок : Full
Язык : English
Default : Нет
Forced : Нет
Меню
00:00:00.000 : en:00:00:00.000
00:04:24.264 : en:00:04:24.264
00:10:19.118 : en:00:10:19.118
00:15:27.844 : en:00:15:27.844
00:19:32.171 : en:00:19:32.171
00:24:53.701 : en:00:24:53.701
00:29:32.938 : en:00:29:32.938
00:35:44.142 : en:00:35:44.142
00:41:55.263 : en:00:41:55.263
00:48:18.521 : en:00:48:18.521
00:54:45.908 : en:00:54:45.908
00:59:54.508 : en:00:59:54.508
01:03:47.073 : en:01:03:47.073
01:08:01.286 : en:01:08:01.286
01:11:55.811 : en:01:11:55.811
01:16:03.809 : en:01:16:03.809
x264 [info]: frame I:1027 Avg QP:14.19 size:166796
x264 [info]: frame P:35332 Avg QP:17.43 size: 60556
x264 [info]: frame B:91322 Avg QP:19.43 size: 22692
x264 [info]: consecutive B-frames: 5.9% 5.5% 12.2% 30.4% 17.8% 24.3% 2.7% 0.9% 0.3%
x264 [total]: encoded 127681 frames, 0.46 fps, 6584.56 kb/s
Скриншоты:

[megatrack.top].t155446.torrent
Торрент: Зарегистрирован   [ 2016-11-29 10:49 ]

Скачать torrent

------------------------------

12 KB

Статус: проверено
Скачан: Скачаны:
Размер: 4.36 GB
Оценка:  - (Голосов: 0)
Поблагодарили: 0  Спасибо
Поделись новостью с друзьями:
Рекламный блок:
 
[Профиль] [ЛС]
ВКонтакте
FaceBook
Показать сообщения:    

Текущее время: Сегодня 04:11

Часовой пояс: GMT + 2



Вы не можете начинать темы
Вы не можете отвечать на сообщения
Вы не можете редактировать свои сообщения
Вы не можете удалять свои сообщения
Вы не можете голосовать в опросах
Вы не можете прикреплять файлы к сообщениям
Вы можете скачивать файлы




покупка трафика на сайт