Статистика раздачи
Скачали: [ 1 ]
Размер:  6.36 GB   |    Зарегистрирован:  4 месяца 4 дня   |    Скачан:  1 раз
Сидов:  0 (+0)  [  0 KB/s  ]   Личеров:  0 (+0)  [  0 KB/s  ]   Подробная статистика пиров
 
   
 
 
 
Автор Сообщение

Yagd ®

Пол:

Стаж: 4 года

Сообщений: 14995

Торрент-статистика

- Аисты / Storks (2016) BDRip [H.264/720p]- Производство: США / Warner Animation Group, RatPac-Dune Entertainment, Stoller Global Solutions
Жанр: Фентези, Комедия, Приключения, Семейный
Режиссер: Николас Столлер, Даг Свитлэнд
Актеры: Энди Сэмберг, Кэти Краун, Келси Грэммер, Дженнифер Энистон, Тай Бурелл, Антон Старкман, Кигэн-Майкл Ки, Джордан Пил, Дэнни Трехо, Стив Гликман
Описание:
Аисты приносят детей… или, во всяком случае, раньше приносили. Теперь же они занимаются доставкой посылок для огромного сайта интернет-продаж. Джуниор, лучший аист в курьерской компании, должен пойти на повышение, но он случайно активирует машину для создания детей и получает очаровательную, но совершенно незапланированную девочку.
Пытаясь доставить эту «посылку» до того, как босс узнает о произошедшем, Джуниор и его подруга Лютик, единственный человек на Горе Аистов, решаются на свою первую доставку ребёнка и отправляются в безумное и насыщенное удивительными открытиями приключение, благодаря которому многие семьи могут стать полными, а аисты — вернуться к своей истинной миссии на Земле.

Возраст: 6+ (зрителям, достигшим 6 лет)
Рейтинг MPAA: PG (рекомендуется присутствие родителей)
Дата мировой премьеры: 22 сентября 2016
Дата российской премьеры: 22 сентября 2016, «Каро-Премьер»
Продолжительность: 01:26:58
Качество видео: BDRip 720р
Перевод: Дублированный (Лицензия)
Язык субтитров: Русский, Английский
Вид субтитров: Вшитые отключаемые
Видео: AVC/H.264, 1280x536, ~7944 Кbps
Аудио: AC3, 6 ch, 448 Kbps - Русский
Аудио: DTS, 6 ch, 1509 Kbps - Английский

MediaInfo

General
Unique ID : 219236900982602047772597439824836477932 (0xA4EF7DC2ABF83CA09717A15328FCC3EC)
Complete name : E:\Storks.BDRip.720p.mkv
Format : Matroska
Format version : Version 4 / Version 2
File size : 6.36 GiB
Duration : 1h 26mn
Overall bit rate : 10.5 Mbps
Encoded date : UTC 2016-12-20 11:59:30
Writing application : mkvmerge v9.5.0 ("Quiet Fire") 64bit
Writing library : libebml v1.3.4 + libmatroska v1.4.5
DURATION : 01:22:04.839000000
NUMBER_OF_FRAMES : 1720
NUMBER_OF_BYTES : 50723
_STATISTICS_WRITING_APP : mkvmerge v9.5.0 ("Quiet Fire") 64bit
_STATISTICS_WRITING_DATE_UTC : 2016-12-20 11:59:30
_STATISTICS_TAGS : BPS DURATION NUMBER_OF_FRAMES NUMBER_OF_BYTES
Video
ID : 1
Format : AVC
Format/Info : Advanced Video Codec
Format profile : [url=mailto:High@L4.1]High@L4.1[/url]
Format settings, CABAC : Yes
Format settings, ReFrames : 12 frames
Codec ID : V_MPEG4/ISO/AVC
Duration : 1h 26mn
Bit rate : 8 299 Kbps
Width : 1 280 pixels
Height : 536 pixels
Display aspect ratio : 2.40:1
Frame rate mode : Constant
Frame rate : 23.976 fps
Color space : YUV
Chroma subsampling : 4:2:0
Bit depth : 8 bits
Scan type : Progressive
Bits/(Pixel*Frame) : 0.505
Stream size : 5.04 GiB (79%)
Title : Storks (2016) - Release for HDCLUB
Writing library : x264 core 142 r2431+42 c69a006 tMod [8-bit@4:2:0 X86_64]
Encoding settings : cabac=1 / ref=12 / deblock=1:-3:-3 / analyse=0x3:0x133 / me=umh / subme=11 / psy=1 / fade_compensate=0.00 / psy_rd=0.80:0.00 / mixed_ref=1 / me_range=32 / chroma_me=1 / trellis=2 / 8x8dct=1 / cqm=0 / deadzone=21,11 / fast_pskip=0 / chroma_qp_offset=-2 / threads=6 / lookahead_threads=1 / sliced_threads=0 / nr=0 / decimate=0 / interlaced=0 / bluray_compat=0 / constrained_intra=0 / fgo=0 / bframes=12 / b_pyramid=2 / b_adapt=2 / b_bias=0 / direct=3 / weightb=1 / open_gop=0 / weightp=2 / keyint=250 / keyint_min=23 / scenecut=40 / intra_refresh=0 / rc_lookahead=60 / rc=crf / mbtree=0 / crf=15.0000 / qcomp=0.62 / qpmin=0:0:0 / qpmax=69:69:69 / qpstep=4 / vbv_maxrate=62500 / vbv_bufsize=78125 / crf_max=0.0 / nal_hrd=none / filler=0 / ip_ratio=1.30 / pb_ratio=1.20 / aq=3:0.75 / aq-sensitivity=10.00 / aq-factor=1.00:1.00:1.00 / aq2=0 / aq3=0
Language : English
Default : Yes
Forced : No
DURATION : 01:26:57.796000000
NUMBER_OF_FRAMES : 125102
NUMBER_OF_BYTES : 5546693632
_STATISTICS_WRITING_APP : mkvmerge v9.5.0 ("Quiet Fire") 64bit
_STATISTICS_WRITING_DATE_UTC : 2016-12-20 11:59:30
_STATISTICS_TAGS : BPS DURATION NUMBER_OF_FRAMES NUMBER_OF_BYTES
Audio #1
ID : 2
Format : AC-3
Format/Info : Audio Coding 3
Mode extension : CM (complete main)
Format settings, Endianness : Big
Codec ID : A_AC3
Duration : 1h 26mn
Bit rate mode : Constant
Bit rate : 448 Kbps
Channel(s) : 6 channels
Channel positions : Front: L C R, Side: L R, LFE
Sampling rate : 48.0 KHz
Compression mode : Lossy
Stream size : 279 MiB (4%)
Title : AC3 5.1 @ 448 kbps - DUB, Blu-ray 3D NORDiC
Language : Russian
Default : Yes
Forced : No
Audio #2
ID : 3
Format : DTS
Format/Info : Digital Theater Systems
Mode : 16
Format settings, Endianness : Big
Codec ID : A_DTS
Duration : 1h 26mn
Bit rate mode : Constant
Bit rate : 1 509 Kbps
Channel(s) : 6 channels
Channel positions : Front: L C R, Side: L R, LFE
Sampling rate : 48.0 KHz
Bit depth : 16 bits
Compression mode : Lossy
Stream size : 939 MiB (14%)
Title : DTS 5.1 @ 1536 kbps
Language : English
Default : No
Forced : No
Text #1
ID : 4
Format : UTF-8
Codec ID : S_TEXT/UTF8
Codec ID/Info : UTF-8 Plain Text
Title : Forced, iTunes
Language : Russian
Default : Yes
Forced : No
Text #2
ID : 5
Format : UTF-8
Codec ID : S_TEXT/UTF8
Codec ID/Info : UTF-8 Plain Text
Title : iTunes
Language : Russian
Default : No
Forced : No
Text #3
ID : 6
Format : UTF-8
Codec ID : S_TEXT/UTF8
Codec ID/Info : UTF-8 Plain Text
Language : English
Default : No
Forced : No
Text #4
ID : 7
Format : UTF-8
Codec ID : S_TEXT/UTF8
Codec ID/Info : UTF-8 Plain Text
Title : SDH
Language : English
Default : No
Forced : No
Menu
00:00:00.000 : en:Chapter 1
00:10:26.501 : en:Chapter 2
00:20:35.734 : en:Chapter 3
00:30:24.406 : en:Chapter 4
00:39:30.034 : en:Chapter 5
00:50:24.480 : en:Chapter 6
00:59:24.436 : en:Chapter 7
01:07:06.022 : en:Chapter 8
01:14:28.297 : en:Chapter 9
01:20:53.599 : en:Chapter 10
Скриншоты:
Все одноименные релизы

[megatrack.top].t156274.torrent
Торрент: Зарегистрирован   [ 2016-12-20 14:33 ]

Скачать torrent

------------------------------

17 KB

Статус: проверено
Скачан: Скачаны:
Размер: 6.36 GB
Оценка:  5 (Голосов: 1)
Поблагодарили: 1  Спасибо   (список)
Поделись новостью с друзьями:
Рекламный блок:
 
[Профиль] [ЛС]
ВКонтакте
FaceBook
Показать сообщения:    

Текущее время: Сегодня 10:25

Часовой пояс: GMT + 2



Вы не можете начинать темы
Вы не можете отвечать на сообщения
Вы не можете редактировать свои сообщения
Вы не можете удалять свои сообщения
Вы не можете голосовать в опросах
Вы не можете прикреплять файлы к сообщениям
Вы можете скачивать файлы




покупка трафика на сайт