<
 
Статистика раздачи
Размер:  9.23 GB   |    Зарегистрирован:  4 месяца 5 дней   |    Скачан:  0 раз
DL-List: Нет
Сидов:  0 (+0)  [  0 KB/s  ]   Личеров:  0 (+0)  [  0 KB/s  ]   Подробная статистика пиров
 
   
 
 
 
Автор Сообщение

Yagd ®

Пол:

Стаж: 4 года

Сообщений: 14995

Торрент-статистика

--
-
Аисты
Storks

-
Год выпуска: 2016
Страна: США (Warner Bros. Pictures, Warner Animation Group, RatPac Entertainment)
Жанр: Мультфильм, Фэнтези, Комедия, Приключения, Семейный
Продолжительность: 01:26:58
Перевод: Профессиональный дублированный (лицензия)
Режиссеры: Николас Столлер, Даг Свитлэнд / Nicholas Stoller, Doug Sweetland
-
Роли озвучивали (дублировали):

Junior - Энди Сэмберг (Алексей Бардуков)
Tulip - Кэти Краун (Анна Старшенбаум)
Hunter - Келси Грэммер
Sarah Gardner - Дженнифер Энистон
Henry Gardner - Тай Бурелл
Nate Gardner - Антон Старкман (Даниил Бледный)
Alpha Wolf - Кигэн-Майкл Ки
Beta Wolf - Джордан Пил
Jasper - Дэнни Трехо
Pigeon Toady - Стив Гликман
Dougland - Кристофер Николас Смит
Quail - Аквафина

-
Описание: Аисты приносят детей… или, во всяком случае, раньше приносили. Теперь же они занимаются доставкой посылок для огромного сайта интернет-продаж. Джуниор, лучший аист в курьерской компании, должен пойти на повышение, но он случайно активирует машину для создания детей и получает очаровательную, но совершенно незапланированную девочку.
Пытаясь доставить эту «посылку» до того, как босс узнает о произошедшем, Джуниор и его подруга Лютик, единственный человек на Горе Аистов, решаются на свою первую доставку ребёнка и отправляются в безумное и насыщенное удивительными открытиями приключение, благодаря которому многие семьи могут стать полными, а аисты — вернуться к своей истинной миссии на Земле.

-
Премьера: 22 сентября 2016
Бюджет: $70 000 000
Кассовые сборы: $177 490 033


-
Качество: BDRip (by Ash61)
Контейнер: MKV
Формат 3D: Half OverUnder / Вертикальная анаморфная стереопара
Порядок ракурсов: левый ракурс первый
-
Видео: AVC / 1920х1080p / 23,976 fps / 13.6 Mbps
Аудио:
#1 - Русский / AC3 / 48 KHz / 5.1 ch / 448 Kbps (Дубляж - BD Eur)
#2 - Украинский / AC3 / 48 KHz / 2 ch / 192 Kbps (Дубляж - Line [моно]) (спасибо Hurtom!)
#3 - Английский / AC3 / 48 KHz / 5.1 ch / 640 Kbps (Original - BD 3D)
Субтитры (SRT):
Вшитые (softsub):
#1 - Русские Форсированные [ver. Ash61] (включены по умолчанию)
#2 - Русские Полные
#3 - Украинские Форсированные [ver. Ash61]
#4 - English Full
#5 - English SDH
Внешние (UTF-8):
#1 - Русские Форсированные [ver. Ash61] (включены по умолчанию)
#2 - Украинские Форсированные [ver. Ash61]

MediaInfo

General
Unique ID : 188414542129830037821405660158039061282 (0x8DBF52242E730CDF9DC806851A467322)
Complete name : E:Storks(2016)3D-halfOU(Ash61)Storks(2016)3D-halfOU(Ash61).mkv
Format : Matroska
Format version : Version 2
File size : 9.23 GiB
Duration : 1h 26mn
Overall bit rate : 15.2 Mbps
Movie name : Аисты / Storks (2016) в 3Д
Encoded date : UTC 2016-12-20 15:26:19
Writing application : mkvmerge v5.8.0 ("No Sleep / Pillow") built on Sep 2 2012 15:37:04
Writing library : libebml v1.2.3 + libmatroska v1.3.0
Video
ID : 1
Format : AVC
Format/Info : Advanced Video Codec
Format profile : High@L4.1
Format settings, CABAC : Yes
Format settings, ReFrames : 4 frames
Codec ID : V_MPEG4/ISO/AVC
Duration : 1h 26mn
Bit rate : 13.6 Mbps
Width : 1 920 pixels
Height : 1 080 pixels
Display aspect ratio : 16:9
Frame rate mode : Constant
Frame rate : 23.976 fps
Color space : YUV
Chroma subsampling : 4:2:0
Bit depth : 8 bits
Scan type : Progressive
Bits/(Pixel*Frame) : 0.274
Stream size : 8.27 GiB (90%)
Title : BDRip by Ash61
Writing library : x264 core 146 r2538 121396c
Encoding settings : cabac=1 / ref=4 / deblock=1:-3:-3 / analyse=0x3:0x113 / me=umh / subme=10 / psy=1 / psy_rd=1.00:0.00 / mixed_ref=1 / me_range=32 / chroma_me=1 / trellis=2 / 8x8dct=1 / cqm=0 / deadzone=21,11 / fast_pskip=1 / chroma_qp_offset=-2 / threads=12 / lookahead_threads=3 / sliced_threads=0 / nr=0 / decimate=1 / interlaced=0 / bluray_compat=0 / constrained_intra=0 / bframes=12 / b_pyramid=2 / b_adapt=2 / b_bias=0 / direct=3 / weightb=1 / open_gop=0 / weightp=2 / keyint=250 / keyint_min=23 / scenecut=40 / intra_refresh=0 / rc_lookahead=60 / rc=crf / mbtree=1 / crf=15.5 / qcomp=0.70 / qpmin=0 / qpmax=69 / qpstep=4 / vbv_maxrate=40000 / vbv_bufsize=30000 / crf_max=0.0 / nal_hrd=none / filler=0 / frame-packing=4 / ip_ratio=1.40 / aq=1:0.70
Language : English
Default : Yes
Forced : No
Audio #1
ID : 2
Format : AC-3
Format/Info : Audio Coding 3
Mode extension : CM (complete main)
Format settings, Endianness : Big
Codec ID : A_AC3
Duration : 1h 26mn
Bit rate mode : Constant
Bit rate : 448 Kbps
Channel(s) : 6 channels
Channel positions : Front: L C R, Side: L R, LFE
Sampling rate : 48.0 KHz
Bit depth : 16 bits
Compression mode : Lossy
Stream size : 279 MiB (3%)
Title : Дубляж - BD Eur
Language : Russian
Default : Yes
Forced : No
Audio #2
ID : 3
Format : AC-3
Format/Info : Audio Coding 3
Mode extension : CM (complete main)
Format settings, Endianness : Big
Codec ID : A_AC3
Duration : 1h 26mn
Bit rate mode : Constant
Bit rate : 192 Kbps
Channel(s) : 2 channels
Channel positions : Front: L R
Sampling rate : 48.0 KHz
Bit depth : 16 bits
Compression mode : Lossy
Stream size : 119 MiB (1%)
Title : Дубляж - Line (моно)
Language : Ukrainian
Default : No
Forced : No
Audio #3
ID : 4
Format : AC-3
Format/Info : Audio Coding 3
Mode extension : CM (complete main)
Format settings, Endianness : Big
Codec ID : A_AC3
Duration : 1h 26mn
Bit rate mode : Constant
Bit rate : 640 Kbps
Channel(s) : 6 channels
Channel positions : Front: L C R, Side: L R, LFE
Sampling rate : 48.0 KHz
Bit depth : 16 bits
Compression mode : Lossy
Stream size : 398 MiB (4%)
Title : Original
Language : English
Default : No
Forced : No
Text #1
ID : 5
Format : UTF-8
Codec ID : S_TEXT/UTF8
Codec ID/Info : UTF-8 Plain Text
Title : Форсированные (версия Ash61)
Language : Russian
Default : Yes
Forced : No
Text #2
ID : 6
Format : UTF-8
Codec ID : S_TEXT/UTF8
Codec ID/Info : UTF-8 Plain Text
Title : Полные - iTunes
Language : Russian
Default : No
Forced : No
Text #3
ID : 7
Format : UTF-8
Codec ID : S_TEXT/UTF8
Codec ID/Info : UTF-8 Plain Text
Title : Форсированные (версия Ash61)
Language : Ukrainian
Default : No
Forced : No
Text #4
ID : 8
Format : UTF-8
Codec ID : S_TEXT/UTF8
Codec ID/Info : UTF-8 Plain Text
Title : Full
Language : English
Default : No
Forced : No
Text #5
ID : 9
Format : UTF-8
Codec ID : S_TEXT/UTF8
Codec ID/Info : UTF-8 Plain Text
Title : SDH
Language : English
Default : No
Forced : No
Menu
00:00:00.000 : :1
00:10:26.500 : :2
00:20:35.733 : :3
00:30:24.404 : :4
00:39:30.034 : :5
00:50:24.478 : :6
00:59:24.434 : :7
01:07:06.021 : :8
01:14:28.296 : :9
01:20:53.597 : :10

Для оценки 3Д - Анимированные скрины















--

[megatrack.top].t156342.torrent
Торрент: Зарегистрирован   [ 2016-12-20 20:18 ]

Скачать torrent

------------------------------

47 KB

Статус: проверено
Скачан: Скачаны:
Размер: 9.23 GB
Оценка:  - (Голосов: 0)
Поблагодарили: 0  Спасибо
Поделись новостью с друзьями:
Рекламный блок:
 
[Профиль] [ЛС]
ВКонтакте
FaceBook
Показать сообщения:    

Текущее время: Сегодня 00:29

Часовой пояс: GMT + 2



Вы не можете начинать темы
Вы не можете отвечать на сообщения
Вы не можете редактировать свои сообщения
Вы не можете удалять свои сообщения
Вы не можете голосовать в опросах
Вы не можете прикреплять файлы к сообщениям
Вы можете скачивать файлы




покупка трафика на сайт