<
 
Статистика раздачи
Размер:  22.4 GB   |    Зарегистрирован:  1 год 8 месяцев   |    Скачан:  3 раза
DL-List: Нет
Сидов:  0 (+19)  [  0 KB/s  ]   Личеров:  0 (+63)  [  0 KB/s  ]   Подробная статистика пиров
 
   
 
 
 
Автор Сообщение

Fiesto ®

Торрент-статистика

-Люси / Lucy (2014) BDRip- Год выпуска: 2014
Производство: Франция
Жанр: Боевик, фантастика
Режиссер: Люк Бессон
Продюсер: Виржини Силла, Марк Шмугер
Актеры: Скарлетт Йоханссон, Морган Фримен, Аналей Типтон, Мин Сик Чхве, Амр Вакид, Мэйсон Ли, Йохан Филип Асбек, Фредерик Чау, Клер Трэн, Жан Оливер Шредер
Описание фильма:
Еще вчера она была просто сексапильной блондинкой, а сегодня – самое опасное и смертоносное создание на планете со сверхъестественными способностями и интеллектом. То, что совсем недавно лучшие умы мира считали фантастической теорией, для нее стало реальностью. И теперь из добычи она превратится в охотницу.

Возраст: 18+ (зрителям, достигшим 18 лет. запрещено для детей)
Рейтинг MPAA: R (лицам до 17 лет обязательно присутствие взрослого)
Продолжительность: 01:29:20
Качество видео: BDRip (2160p)
Перевод: Дублированный
Язык субтитров: Русский, украинский, английский
Вид субтитров: Вшитые (отключаемые)
Видео: V_MPEGH/ISO/HEVC, 3840x1600 (2.40:1), 23.976 fps, 32.8 Mbps (0.223 bit/pixel)
Аудио #1: DTS, 48.0 KHz, 6 ch, 755 Kbps, CBR | Русский
Аудио #2: DTS MA / Core, 48.0 KHz, 6 ch, 1 576 Kbps / 1 510 Kbps, VBR | Английский

MediaInfo&#58;

Общее
Уникальный идентификатор : 252419105474595325398568966952062975728 (0xBDE626C0A2E3100DB6DCEF348C3E7EF0)
Полное имя : D:\_\Люси\Lucy 2014 BDRip-2160p .mkv
Формат : Matroska
Версия формата : Version 4 / Version 2
Размер файла : 22,4 Гбайт
Продолжительность : 1 ч. 29 м.
Общий поток : 35,9 Мбит/сек
Программа кодирования : mkvmerge v9.3.1 ("Mask Machine") 64bit
Библиотека кодирования : libebml v1.3.4 + libmatroska v1.4.5
Видео
Идентификатор : 1
Формат : HEVC
Формат/Информация : High Efficiency Video Coding
Профиль формата : Main 10@L5@Main
Идентификатор кодека : V_MPEGH/ISO/HEVC
Продолжительность : 1 ч. 29 м.
Битрейт : 30,8 Мбит/сек
Ширина : 3840 пикселей
Высота : 1600 пикселей
Соотношение сторон : 2,40:1
Режим частоты кадров : Постоянный
Частота кадров : 23,976 (23976/1000) кадра/сек
Цветовое пространство : YUV
Субдискретизация насыщенности : 4:2:0 (Type 2)
Битовая глубина : 10 бит
Бит/(Пиксели*Кадры) : 0.209
Размер потока : 19,2 Гбайт (86%)
Библиотека кодирования : x265 2.2+2-998d4520d1cf:[Windows][GCC 6.2.0][64 bit] 10bit
Настройки программы : cpuid=1050111 / frame-threads=3 / numa-pools=12 / wpp / no-pmode / no-pme / no-psnr / no-ssim / log-level=2 / input-csp=1 / input-res=3840x1600 / interlace=0 / total-frames=0 / level-idc=0 / high-tier=1 / uhd-bd=0 / ref=1 / no-allow-non-conformance / repeat-headers / annexb / no-aud / no-hrd / info / hash=0 / no-temporal-layers / open-gop / min-keyint=23 / keyint=250 / bframes=3 / b-adapt=2 / b-pyramid / bframe-bias=0 / rc-lookahead=40 / lookahead-slices=0 / scenecut=40 / no-intra-refresh / ctu=32 / min-cu-size=8 / no-rect / no-amp / max-tu-size=32 / tu-inter-depth=1 / tu-intra-depth=1 / limit-tu=0 / rdoq-level=2 / signhide / no-tskip / nr-intra=0 / nr-inter=0 / no-constrained-intra / strong-intra-smoothing / max-merge=2 / limit-refs=0 / no-limit-modes / me=2 / subme=7 / merange=57 / temporal-mvp / weightp / weightb / no-analyze-src-pics / no-deblock / no-sao / no-sao-non-deblock / rd=6 / no-early-skip / no-rskip / fast-intra / no-tskip-fast / no-cu-lossless / no-b-intra / rdpenalty=0 / psy-rd=4.00 / psy-rdoq=8.00 / no-rd-refine / analysis-mode=0 / no-lossless / cbqpoffs=0 / crqpoffs=0 / rc=crf / crf=22.0 / qcomp=0.80 / qpstep=1 / stats-write=0 / stats-read=0 / ipratio=1.10 / pbratio=1.00 / aq-mode=3 / aq-strength=1.00 / no-cutree / zone-count=0 / no-strict-cbr / qg-size=32 / no-rc-grain / qpmax=51 / qpmin=0 / sar=0 / overscan=0 / videoformat=5 / range=0 / colorprim=9 / transfer=16 / colormatrix=9 / chromaloc=1 / chromaloc-top=2 / chromaloc-bottom=2 / display-window=0 / master-display=G(13250,34500)B(7500,3000)R(34000,16000)WP(15635,16450)L(10000000,50) / max-cll=1000,400 / min-luma=0 / max-luma=1023 / log2-max-poc-lsb=8 / vui-timing-info / vui-hrd-info / slices=1 / opt- qp-pps / opt-ref-list-length-pps / no-multi-pass-opt-rps / scenecut-bias=0.05
Язык : English
Default : Да
Forced : Нет
Цветовой диапазон : Limited
Основные цвета : BT.2020
Характеристики трансфера : SMPTE ST 2084
Коэффициенты матрицы : BT.2020 non-constant
MasteringDisplay_ColorPrimaries : R: x=0.680000 y=0.320000, G: x=0.265000 y=0.690000, B: x=0.150000 y=0.060000, White point: x=0.312700 y=0.329000
MasteringDisplay_Luminance : min: 0.0050 cd/m2, max: 1000.0000 cd/m2
MaxCLL : 1000 cd/m2
MaxFALL : 400 cd/m2
Аудио #1
Идентификатор : 2
Формат : DTS
Формат/Информация : Digital Theater Systems
Режим : 16
Параметр Endianness формата : Big
Идентификатор кодека : A_DTS
Продолжительность : 1 ч. 29 м.
Вид битрейта : Постоянный
Битрейт : 768 Кбит/сек
Каналы : 6 каналов
Расположение каналов : Front: L C R, Side: L R, LFE
Частота : 48,0 КГц
Частота кадров : 93,750 кадра/сек (512 spf)
Битовая глубина : 24 бит
Метод сжатия : С потерями
Размер потока : 491 Мбайт (2%)
Заголовок : DTS 5.1 @ 768 kbps - DUB, Blu-ray CEE
Язык : Russian
Default : Да
Forced : Нет
Аудио #2
Идентификатор : 3
Формат : DTS
Формат/Информация : Digital Theater Systems
Профиль формата : MA / Core
Режим : 16
Параметр Endianness формата : Big
Идентификатор кодека : A_DTS
Продолжительность : 1 ч. 29 м.
Вид битрейта : Переменный / Постоянный
Битрейт : 4284 Кбит/сек / 1509 Кбит/сек
Каналы : 6 каналов
Расположение каналов : Front: L C R, Side: L R, LFE
Частота : 48,0 КГц
Частота кадров : 93,750 кадра/сек (512 spf)
Битовая глубина : 24 бит
Метод сжатия : Без потерь / Lossy
Размер потока : 2,67 Гбайт (12%)
Заголовок : DTS-HD MA 5.1 @ 4284 kbps - Blu-ray CEE
Язык : English
Default : Нет
Forced : Нет
Текст #1
Идентификатор : 4
Формат : UTF-8
Идентификатор кодека : S_TEXT/UTF8
Идентификатор кодека/Информация : UTF-8 Plain Text
Продолжительность : 1 ч. 17 м.
Битрейт : 4 бит/сек
Count of elements : 67
Размер потока : 2,61 Кбайт (0%)
Заголовок : Forced, Blu-ray CEE
Язык : Russian
Default : Да
Forced : Нет
Текст #2
Идентификатор : 5
Формат : UTF-8
Идентификатор кодека : S_TEXT/UTF8
Идентификатор кодека/Информация : UTF-8 Plain Text
Продолжительность : 1 ч. 21 м.
Битрейт : 66 бит/сек
Count of elements : 777
Размер потока : 39,2 Кбайт (0%)
Заголовок : Blu-ray CEE
Язык : Russian
Default : Нет
Forced : Нет
Текст #3
Идентификатор : 6
Формат : UTF-8
Идентификатор кодека : S_TEXT/UTF8
Идентификатор кодека/Информация : UTF-8 Plain Text
Продолжительность : 1 ч. 17 м.
Битрейт : 4 бит/сек
Count of elements : 67
Размер потока : 2,65 Кбайт (0%)
Заголовок : Forced, Blu-ray CEE
Язык : Ukrainian
Default : Нет
Forced : Нет
Текст #4
Идентификатор : 7
Формат : UTF-8
Идентификатор кодека : S_TEXT/UTF8
Идентификатор кодека/Информация : UTF-8 Plain Text
Продолжительность : 1 ч. 20 м.
Битрейт : 57 бит/сек
Count of elements : 777
Размер потока : 34,2 Кбайт (0%)
Заголовок : Blu-ray CEE
Язык : Ukrainian
Default : Нет
Forced : Нет
Текст #5
Идентификатор : 8
Формат : UTF-8
Идентификатор кодека : S_TEXT/UTF8
Идентификатор кодека/Информация : UTF-8 Plain Text
Продолжительность : 50 м. 6 с.
Битрейт : 3 бит/сек
Count of elements : 59
Размер потока : 1,42 Кбайт (0%)
Заголовок : Forced
Язык : English
Default : Нет
Forced : Нет
Текст #6
Идентификатор : 9
Формат : UTF-8
Идентификатор кодека : S_TEXT/UTF8
Идентификатор кодека/Информация : UTF-8 Plain Text
Продолжительность : 1 ч. 20 м.
Битрейт : 43 бит/сек
Count of elements : 839
Размер потока : 25,5 Кбайт (0%)
Язык : English
Default : Нет
Forced : Нет
Текст #7
Идентификатор : 10
Формат : UTF-8
Идентификатор кодека : S_TEXT/UTF8
Идентификатор кодека/Информация : UTF-8 Plain Text
Продолжительность : 1 ч. 20 м.
Битрейт : 48 бит/сек
Count of elements : 1014
Размер потока : 28,9 Кбайт (0%)
Заголовок : SDH
Язык : English
Default : Нет
Forced : Нет
Меню
00:00:00.000 : en:Chapter 01
00:05:26.367 : en:Chapter 02
00:08:38.267 : en:Chapter 03
00:15:45.569 : en:Chapter 04
00:21:36.837 : en:Chapter 05
00:26:05.397 : en:Chapter 06
00:30:27.534 : en:Chapter 07
00:37:36.254 : en:Chapter 08
00:41:43.459 : en:Chapter 09
00:47:32.558 : en:Chapter 10
00:50:10.716 : en:Chapter 11
00:55:32.495 : en:Chapter 12
00:59:36.072 : en:Chapter 13
01:02:08.099 : en:Chapter 14
01:04:51.345 : en:Chapter 15
01:07:14.030 : en:Chapter 16
01:09:55.816 : en:Chapter 17
01:12:26.133 : en:Chapter 18
01:18:50.475 : en:Chapter 19
01:22:31.988 : en:Chapter 20
Скриншоты: Все релизы фильма «Люси»

[megatrack.top].t157268.torrent
Торрент: Зарегистрирован   [ 2017-02-05 11:42 ]

Скачать torrent

------------------------------

113 KB

Статус: проверено
Скачан: Скачаны:
Размер: 22.4 GB
Оценка:  5 (Голосов: 1)
Поблагодарили: 1   (список)
:
 
 
Показать сообщения:    

Текущее время: Сегодня 07:17

Часовой пояс: GMT + 2



Вы не можете начинать темы
Вы не можете отвечать на сообщения
Вы не можете редактировать свои сообщения
Вы не можете удалять свои сообщения
Вы не можете голосовать в опросах
Вы не можете прикреплять файлы к сообщениям
Вы можете скачивать файлы




покупка трафика на сайт