<
 
Статистика раздачи
Размер:  1.49 GB   |    Зарегистрирован:  1 год 3 месяца   |    Скачан:  0 раз
DL-List: Нет
Сидов:  0 (+1)  [  0 KB/s  ]   Личеров:  0 (+4)  [  0 KB/s  ]   Подробная статистика пиров
 
   
 
 
 
Автор Сообщение

Fiesto ®

Торрент-статистика

- Давайте познакомимся (2016) WEB-DL [H.264/1080p-LQ] - Производство: Россия / ТВЦ
Жанр: Мелодрама
Режиссер: Александр Кананович
Актеры: Вероника Пляшкевич, Алексей Анищенко, Елена Валюшкина, Руслан Чернецкий, Анастасия Боброва, Валентина Гарцуева, Елена Ласкавая, Даниил Сизов
Описание:
Люба Соловьёва становится свидетелем аварии, после которой незнакомый ей Павел — тоже Соловьёв — попадает в реанимацию. На руках у Любы остаётся его сын Шура. Люба приходит в больницу, где её принимают за жену Павла. Не в силах бросить ребёнка, у которого нет матери, а отец лежит в коме, женщина решает дождаться приезда из Германии бабушки Шуры, а пока принимает на себя роль жены и ухаживает за Павлом. Возможно, на это есть и личные причины: вся эта ситуация разворачивается на фоне разрыва с мужем Сергеем, который уверен, что Люба никому не нужна, а значит, с ней можно вести себя как угодно. А ей важно чувствовать себя нужной — пусть даже случайному человеку.

Возраст: 12+ (зрителям, достигшим 12 лет)
Релиз от: Алехаndr
Продолжительность: 01:33:37
Качество видео: WEB-DL
Видео: AVC/H.264, 1920x1080 (16:9), ~2084 Kbps
Аудио: AC3, 2 ch, 192 Kbps, CBR

MediaInfo

Общее
Уникальный идентификатор : 211321124026366442013675209905030498245 (0x9EFAF7D3117420A4AB3EA3B3687F07C5)
Полное имя : G:\Давайте познакомимся (2016).mkv
Формат : Matroska
Версия формата : Version 4 / Version 2
Размер файла : 1,49 Гбайт
Продолжительность : 1 ч. 33 м.
Общий поток : 2278 Кбит/сек
Дата кодирования : UTC 2017-02-06 03:51:42
Программа кодирования : mkvmerge v9.8.0 ("Kuglblids") 64bit
Библиотека кодирования : libebml v1.3.4 + libmatroska v1.4.5 / Lavf57.25.100
Видео
Идентификатор : 1
Формат : AVC
Формат/Информация : Advanced Video Codec
Профиль формата : High@L4
Параметр CABAC формата : Да
Параметр ReFrames формата : 3 кадра
Идентификатор кодека : V_MPEG4/ISO/AVC
Продолжительность : 1 ч. 33 м.
Битрейт : 2084 Кбит/сек
Ширина : 1920 пикселей
Высота : 1080 пикселей
Соотношение сторон : 16:9
Режим частоты кадров : Постоянный
Частота кадров : 25,000 кадров/сек
Цветовое пространство : YUV
Субдискретизация насыщенности : 4:2:0
Битовая глубина : 8 бит
Тип развёртки : Прогрессивная
Бит/(Пиксели*Кадры) : 0.040
Размер потока : 1,36 Гбайт (91%)
Default : Да
Forced : Нет
Цветовой диапазон : Limited
Основные цвета : BT.709
Характеристики трансфера : BT.709
Коэффициенты матрицы : BT.709
Аудио
Идентификатор : 2
Формат : AC-3
Формат/Информация : Audio Coding 3
Расширение режима : CM (complete main)
Параметр Endianness формата : Big
Идентификатор кодека : A_AC3
Продолжительность : 1 ч. 33 м.
Вид битрейта : Постоянный
Битрейт : 192 Кбит/сек
Каналы : 2 канала
Расположение каналов : Front: L R
Частота : 44,1 КГц
Частота кадров : 28,711 кадров/сек (1536 spf)
Битовая глубина : 16 бит
Метод сжатия : С потерями
Задержка видео : -40 мс.
Размер потока : 129 Мбайт (8%)
Default : Да
Forced : Нет
Скриншоты:

[megatrack.top].t157322.torrent
Торрент: Зарегистрирован   [ 2017-02-06 10:01 ]

Скачать torrent

------------------------------

16 KB

Статус: проверено
Скачан: Скачаны:
Размер: 1.49 GB
Оценка:  - (Голосов: 0)
Поблагодарили: 0
:
 
 
Показать сообщения:    

Текущее время: Сегодня 14:35

Часовой пояс: GMT + 2



Вы не можете начинать темы
Вы не можете отвечать на сообщения
Вы не можете редактировать свои сообщения
Вы не можете удалять свои сообщения
Вы не можете голосовать в опросах
Вы не можете прикреплять файлы к сообщениям
Вы можете скачивать файлы




покупка трафика на сайт