<
 
Статистика раздачи
Размер:  1.27 GB   |    Зарегистрирован:  1 год 2 месяца   |    Скачан:  3 раза
DL-List: Нет
Сидов:  0 (+59)  [  0 KB/s  ]   Личеров:  0 (+2)  [  0 KB/s  ]   Подробная статистика пиров
 
   
 
 
 
Автор Сообщение

Мария ®

Пол:

Стаж: 2 года 5 месяцев

Сообщений: 6724

Откуда: Заволжский район.

Торрент-статистика

Коллектор (2016) BDRip [H.264] - Производство: Россия
Жанр: Драма, Триллер
Режиссер: Алексей Красовский
Продюсер: Георгий Шабанов, Дмитрий Руженцев, Эдуард Илоян
Актеры: Константин Хабенский, Евгений Стычкин, Ксения Буравская, Полина Агуреева, Кирилл Плетнёв, Валентина Лукащук, Александр Тютин, Игорь Золотовицкий, Никита Тюнин, Татьяна Лазарева.
Описание:
Артур — мастер своего дела. Работая только с крупными должниками, он находит всю их подноготную и эффективно использует против них. Он никогда не прибегает к банальным методам, его конек — психологическая атака. Артур умеет виртуозно перевоплощаться, сбивать с толку, выводить из равновесия и так допекать своих клиентов, что они готовы вернуть все, только бы никогда больше не слышать его голос. Но однажды Артур сам становится мишенью: в сети появляется скандальное видео с его участием, и от него мгновенно отворачиваются друзья и коллеги. Под угрозой оказывается не только его репутация, но и жизнь… Теперь у коллектора есть всего одна ночь, чтобы найти того, кто загнал его в угол.
[img]https://www.kinopoisk.ru/rating/932512.gif[/img]
Возраст: 16+ (зрителям, достигшим 16 лет)
Дата мировой премьеры: 2 июля 2016
Дата российской премьеры: 6 октября 2016, «WDSSPR»
Дата выхода DVD/Blu-ray релиза: 14 ноября 2016, «НД Плэй»
Продолжительность: 01:14:18
Качество видео: BDRip (H.264)
Перевод: Не требуется (Русский, Лицензия BD RUS)
Вид субтитров: Вшитые, отлючаемые
Язык субтитров: Русский, Английский
Видео: AVC/H.264, 1024x428, 1998 kbps, 23.976 fps
Аудио: AC3, 6 ch, 448 Kbps

Трейлер&#58;

[/url]

MediaInfo&#58;

Код: [url=#]выделить всеUnique ID : 199097827299290298373668066607541586881 (0x95C8D8C4556BDD5B8406936C61C50BC1)
Complete name : /etc/seedbox/home/kreker-100/data/Kollektor.2016.BDRip.AVC.ExKinoRay.mkv
Format : Matroska
Format version : Version 2
File size : 1.27 GiB
Duration : 1h 14mn
Overall bit rate : 2 442 Kbps
Movie name : Коллектор 2016 from ExKinoRay
Encoded date : UTC 2016-11-20 12:44:32
Writing application : mkvmerge v7.6.0 ('Garden of Dreams') 32bit built on Feb 11 2015 00:18:47
Writing library : libebml v1.3.1 + libmatroska v1.4.2
Video
ID : 1
Format : AVC
Format/Info : Advanced Video Codec
Format profile : [url=mailto:High@L4.1]High@L4.1[/url]
Format settings, CABAC : Yes
Format settings, ReFrames : 12 frames
Codec ID : V_MPEG4/ISO/AVC
Duration : 1h 14mn
Bit rate : 1 998 Kbps
Width : 1 024 pixels
Height : 428 pixels
Display aspect ratio : 2.40:1
Frame rate mode : Constant
Frame rate : 23.976 fps
Color space : YUV
Chroma subsampling : 4:2:0
Bit depth : 8 bits
Scan type : Progressive
Bits/(Pixel*Frame) : 0.190
Stream size : 1.01 GiB (80%)
Title : Enigma
Writing library : x264 core 144 r2525 40bb568
Encoding settings : cabac=1 / ref=12 / deblock=1:-2:-2 / analyse=0x3:0x113 / me=umh / subme=10 / psy=1 / psy_rd=1.05:0.15 / mixed_ref=1 / me_range=32 / chroma_me=1 / trellis=2 / 8x8dct=1 / cqm=0 / deadzone=21,11 / fast_pskip=1 / chroma_qp_offset=-3 / threads=12 / lookahead_threads=3 / sliced_threads=0 / nr=0 / decimate=1 / interlaced=0 / bluray_compat=0 / constrained_intra=0 / bframes=10 / b_pyramid=2 / b_adapt=2 / b_bias=0 / direct=3 / weightb=1 / open_gop=0 / weightp=2 / keyint=240 / keyint_min=23 / scenecut=40 / intra_refresh=0 / rc_lookahead=40 / rc=2pass / mbtree=0 / bitrate=1998 / ratetol=1.0 / qcomp=0.65 / qpmin=0 / qpmax=51 / qpstep=4 / cplxblur=20.0 / qblur=0.5 / vbv_maxrate=50000 / vbv_bufsize=62500 / nal_hrd=none / filler=0 / ip_ratio=1.40 / pb_ratio=1.30 / aq=1:1.00
Default : Yes
Forced : No
Color range : Limited
Color primaries : BT.709
Transfer characteristics : BT.709
Matrix coefficients : BT.709
Audio
ID : 2
Format : AC-3
Format/Info : Audio Coding 3
Mode extension : CM (complete main)
Format settings, Endianness : Big
Codec ID : A_AC3
Duration : 1h 14mn
Bit rate mode : Constant
Bit rate : 448 Kbps
Channel(s) : 6 channels
Channel positions : Front: L C R, Side: L R, LFE
Sampling rate : 48.0 KHz
Bit depth : 16 bits
Compression mode : Lossy
Stream size : 238 MiB (18%)
Language : Russian
Default : Yes
Forced : No
Text #1
ID : 3
Format : UTF-8
Codec ID : S_TEXT/UTF8
Codec ID/Info : UTF-8 Plain Text
Language : Russian
Default : No
Forced : No
Text #2
ID : 4
Format : UTF-8
Codec ID : S_TEXT/UTF8
Codec ID/Info : UTF-8 Plain Text
Language : English
Default : No
Forced : No
Menu
00:00:00.000 : ru:Глава 1
00:00:38.955 : ru:Глава 2
00:07:29.866 : ru:Глава 3
00:14:41.547 : ru:Глава 4
00:23:41.920 : ru:Глава 5
00:33:21.124 : ru:Глава 6
00:41:10.885 : ru:Глава 7
00:50:14.803 : ru:Глава 8
01:00:29.876 : ru:Глава 9
Скриншоты:
[/url]
Время раздачи: 24/7 до первых 10-и скачавших

[megatrack.top].t157792.torrent
 ЗОЛОТАЯ РАЗДАЧА! СКАЧАННОЕ НЕ ЗАСЧИТЫВАЕТСЯ! 
Торрент: Зарегистрирован   [ 2017-03-09 10:59 ]

Скачать torrent

------------------------------

102 KB

Статус: проверено
Скачан: Скачаны:
Размер: 1.27 GB
Оценка:  5 (Голосов: 1)
Поблагодарили: 2  Спасибо   (список)
:
 
[Профиль] [ЛС]
Показать сообщения:    

Текущее время: Сегодня 14:53

Часовой пояс: GMT + 2



Вы не можете начинать темы
Вы не можете отвечать на сообщения
Вы не можете редактировать свои сообщения
Вы не можете удалять свои сообщения
Вы не можете голосовать в опросах
Вы не можете прикреплять файлы к сообщениям
Вы можете скачивать файлы




покупка трафика на сайт