<
 
Статистика раздачи
Нет
 
   
 
 
Автор Сообщение

Мария ®

Пол:

Стаж: 2 года 8 месяцев

Сообщений: 6844

Откуда: Заволжский район.

Торрент-статистика

Цыганское счастье- Год выпуска: 2016
Производство: Тесей Продакшн
Жанр: Мелодрама
Продолжительность: 00:45:00
Субтитры: нет-Режиссёр: Рамиль Сабитов-В ролях: Елена Полянская, Алексей Нестеренко, Александр Рубенчик, Станислав Эрдлей, Борис Абаров, Рамиль Сабитов, Юлиана Сабитова, Кристина Сабитова, Тимофей Каратаев, Мария Федорко, Алексей Федорко, Элеонора Блудова, Евгений Женихов, Андрей Соломыков, Геннадий Казачков, Евгений Клеймёнов, Олег Метелев-Описание: Надя - современная молодая девушка, живет в мире гаджетов, социальных сетей и распланированной карьеры, которая для нее на первом месте. Но однажды судьба сводит ее с красавцем-цыганом, певцом Яном. Молодые люди не нравятся друг другу, так как между ними нет ничего общего. К тому же, Надя недолюбливает цыган, а Ян – бойких городских девиц. Однако обстоятельства складываются так, что Наде и Яну придется найти друг с другом общий язык. Они вынуждены вместе бежать из Москвы после того, как их обвиняют в убийстве сына очень важного бизнесмена. Так Надя попадает в цыганский табор, живущий по строгим традициям цыганских законов под руководством старейшины табора Баро, отца Яна.-Качество: HDTVRip
Формат: AVI
Видео кодек: XviD
Аудио кодек: AC3
Видео: 720x400 (16:9), 25.000 fps, XviD build 73, 1573 Kbps, 0.21 bits/pixel
Аудио: 48 kHz, AC3 Dolby Digital, 2 ch, 192 Kbps
Реклама: Нет

MI

General
Complete name : Downloads\Цыганское счастье.2016.HDTVRip.Files-x\01.Цыганское счастье.2016.HDTVRip.Files-x.avi
Format : AVI
Format/Info : Audio Video Interleave
File size : 549 MiB
Duration : 43mn 16s
Overall bit rate : 1 774 Kbps
Writing application : VirtualDubMod 1.5.10.3 | www.virtualdub-fr.org || (build 2550/release)
Writing library : VirtualDubMod build 2550/release
Video #0
ID : 0
Format : MPEG-4 Visual
Format profile : Advanced Simple@L5
Format settings, BVOP : 1
Format settings, QPel : No
Format settings, GMC : No warppoints
Format settings, Matrix : Custom
Codec ID : XVID
Codec ID/Hint : XviD
Duration : 43mn 16s
Bit rate : 1 573 Kbps
Width : 720 pixels
Height : 400 pixels
Display aspect ratio : 16:9
Frame rate : 25.000 fps
Color space : YUV
Chroma subsampling : 4:2:0
Bit depth : 8 bits
Scan type : Progressive
Compression mode : Lossy
Bits/(Pixel*Frame) : 0.218
Stream size : 487 MiB (89%)
Writing library : XviD 73
Audio #1
ID : 1
Format : AC-3
Format/Info : Audio Coding 3
Mode extension : CM (complete main)
Format settings, Endianness : Big
Codec ID : 2000
Duration : 43mn 16s
Bit rate mode : Constant
Bit rate : 192 Kbps
Channel(s) : 2 channels
Channel positions : Front: L R
Sampling rate : 48.0 KHz
Bit depth : 16 bits
Compression mode : Lossy
Stream size : 59.4 MiB (11%)
Alignment : Split accross interleaves
Interleave, duration : 40 ms (1.00 video frame)
Interleave, preload duration : 500 ms

Скриншоты

[Профиль] [ЛС]
Показать сообщения:    

Текущее время: Сегодня 22:03

Часовой пояс: GMT + 2



Вы не можете начинать темы
Вы не можете отвечать на сообщения
Вы не можете редактировать свои сообщения
Вы не можете удалять свои сообщения
Вы не можете голосовать в опросах
Вы не можете прикреплять файлы к сообщениям
Вы не можете скачивать файлы




покупка трафика на сайт