<
 
Статистика раздачи
Скачали: [ 1 ]
Размер:  8.68 GB   |    Зарегистрирован:  4 месяца 8 дней   |    Скачан:  1 раз
Сидов:  0 (+47)  [  0 KB/s  ]   Личеров:  0 (+12)  [  0 KB/s  ]   Подробная статистика пиров
 
   
 
 
 
Автор Сообщение

Мария ®

Пол:

Стаж: 2 года 8 месяцев

Сообщений: 6844

Откуда: Заволжский район.

Торрент-статистика

- Одна жизнь на двоих (2018) WEBRip (серии 1-16 из 16) - Производство: Россия / Всемирные Русские Студии
Жанр: детектив, мелодрама
Режиссер: Рауф Кубаев
Актеры: Анна Каменкова, Екатерина Панасюк, Константин Воробьёв, Александр Зельский, Татьяна Лютаева, Анастасия Чистякова, Сергей Паршин, Борис Чистяков, Артем Крылов, Алиса Лозовская и др.
Описание:
Москва восьмидесятых. Арсений, приехавший из провинции, встречает в столице любовь своей жизни девушку Настю. Но что делать, если против чувства молодых выступают номенклатурная семья избранницы и ее окружение?
Возраст: 12+ (зрителям, достигшим 12 лет)
Дата российской премьеры: 26 марта 2018 (Россия-1)
Продолжительность: ~ 00:50:00 серия
Качество видео: WEBRip
Видео: Xvid, 720x400 (16:9), ~1328 Kbps
Аудио: AC3, 2 ch, 192 kbps

Mediainfo&#58;

Общее
Полное имя : D:\Мои фильмы\Odna_zhizn'_na_dvoih_1-16iz16_2018_XviD_HDTVRip\Odna_zhizn'_na_dvoih_01.avi
Формат : AVI
Формат/Информация : Audio Video Interleave
Размер файла : 555 Мбайт
Продолжительность : 50 м. 45 с.
Общий поток : 1529 Кбит/сек
Программа кодирования : VirtualDubMod 1.5.10.3 | www.virtualdub-fr.org || (build 2550/release)
Библиотека кодирования : VirtualDub build 40716/release
Видео
Идентификатор : 0
Формат : MPEG-4 Visual
Профиль формата : Advanced Simple@L5
Параметр BVOP формата : 2
Параметр QPel формата : Нет
Параметр GMC формата : Без точки перехода
Параметр матрицы формата : Default (H.263)
Идентификатор кодека : XVID
Идентификатор кодека/Подсказка : XviD
Продолжительность : 50 м. 45 с.
Битрейт : 1328 Кбит/сек
Ширина : 720 пикселей
Высота : 400 пикселей
Соотношение сторон : 16:9
Частота кадров : 25,000 кадров/сек
Цветовое пространство : YUV
Субдискретизация насыщенности : 4:2:0
Битовая глубина : 8 бит
Тип развёртки : Прогрессивная
Метод сжатия : С потерями
Бит/(Пиксели*Кадры) : 0.184
Размер потока : 482 Мбайт (87%)
Библиотека кодирования : XviD 67
Аудио
Идентификатор : 1
Формат : AC-3
Формат/Информация : Audio Coding 3
Параметр Endianness формата : Big
Идентификатор кодека : 2000
Продолжительность : 50 м. 45 с.
Вид битрейта : Постоянный
Битрейт : 192 Кбит/сек
Каналы : 2 канала
Расположение каналов : Front: L R
Частота : 48,0 КГц
Частота кадров : 31,250 кадров/сек (1536 SPF)
Битовая глубина : 16 бит
Метод сжатия : С потерями
Размер потока : 69,7 Мбайт (13%)
Выравнивание : Соединение по промежуткам
Продолжительность промежутка : 40 мс. (1,00 видеокадр)
Время предзагрузки промежутка : 512 мс.
ServiceKind/String : Complete Main
Скриншоты:

[megatrack.top].t162578.torrent
Торрент: Зарегистрирован   [ 2018-04-08 19:15 ]

Скачать torrent

------------------------------

45 KB

Статус: проверено
Скачан: Скачаны:
Размер: 8.68 GB
Оценка:  - (Голосов: 0)
Поблагодарили: 1  Спасибо   (список)
:
 
[Профиль] [ЛС]
Показать сообщения:    

Текущее время: Сегодня 18:41

Часовой пояс: GMT + 2



Вы не можете начинать темы
Вы не можете отвечать на сообщения
Вы не можете редактировать свои сообщения
Вы не можете удалять свои сообщения
Вы не можете голосовать в опросах
Вы не можете прикреплять файлы к сообщениям
Вы можете скачивать файлы




покупка трафика на сайт