<
 
Статистика раздачи
Скачали: [ 3 ]
Размер:  4.05 GB   |    Зарегистрирован:  16 дней   |    Скачан:  3 раза
Сидов:  0 (+0)  [  0 KB/s  ]   Личеров:  0 (+0)  [  0 KB/s  ]   Подробная статистика пиров
 
   
 
 
 
Автор Сообщение

sergey82 ®

Пол:

Стаж: 5 лет 5 месяцев

Сообщений: 237

Торрент-статистика

Информация о фильме
Название: Человек-муравей и Оса
Оригинальное название: Ant-Man and the Wasp
Год выхода: 2018
Жанр: Фантастика, боевик, приключения
Режиссер: Пейтон Рид
В ролях: Пол Радд, Эванджелин Лилли, Майкл Пенья, Уолтон Гоггинс, Бобби Каннавейл, Джуди Грир, Ти Ай, Давид Дастмалчян, Ханна Джон-Кэймен, Эбби Райдер Фортсон
О фильме:
Скотт Лэнг, известный также как Человек-муравей, уже заслужил право оказаться в команде Мстителей. Но желание быть ближе к дочери удерживает его в родном Сан-Франциско — до тех пор, пока доктор Хэнк Пим, создавший когда-то изменяющий размеры своего владельца чудо-костюм, не призывает Скотта присоединиться к новой опасной миссии. А помогать в противостоянии с коварным врагом Человеку-муравью будет новая напарница — Оса.

Страна: США
Студия: Marvel Studios Inc.
Продолжительность: 01:58:33
Перевод: СУБТИТРЫ
Файл
Кодек: AVC
Качество: WEB-DL 1080p | Sub
Видео: MPEG-4 AVC, 1920x804, 4509 Kбит/с, 23.976 кадр/с
Звук: Аудио #1: Английский ( АС3, 6ch, 384 Кбит/с, 48.0 KHz)
Субтитры: Русские, английские, испанские, французские, португальские

MediaInfo

Источник: Ant.Man.And.The.Wasp.2018.1080p.WEB.h264-WEBTiFUL
General
Unique ID : 222875891484559779374438133721520434432 (0xA7AC55D8229C486C89455B434F506D00)
Complete name : Ant.Man.And.The.Wasp.2018.WEB-DL.1080p.Sub.mkv
Format : Matroska
Format version : Version 4 / Version 2
File size : 4.05 GiB
Duration : 1h 58mn
Overall bit rate : 4 894 Kbps
Encoded date : UTC 2018-10-02 22:02:21
Writing application : mkvmerge v7.1.0 ('Good Love') 64bit built on Jul 27 2014 13:06:55
Writing library : libebml v1.3.0 + libmatroska v1.4.1
Video
ID : 1
Format : AVC
Format/Info : Advanced Video Codec
Format profile : High@L4
Format settings, CABAC : Yes
Format settings, ReFrames : 5 frames
Codec ID : V_MPEG4/ISO/AVC
Duration : 1h 58mn
Bit rate : 4 509 Kbps
Width : 1 920 pixels
Height : 804 pixels
Display aspect ratio : 2.40:1
Frame rate mode : Constant
Frame rate : 23.976 (24000/1001) fps
Color space : YUV
Chroma subsampling : 4:2:0
Bit depth : 8 bits
Scan type : Progressive
Bits/(Pixel*Frame) : 0.122
Stream size : 3.73 GiB (92%)
Language : English
Default : Yes
Forced : No
Color range : Limited
Color primaries : BT.709
Transfer characteristics : BT.709
Matrix coefficients : BT.709
Audio
ID : 2
Format : AC-3
Format/Info : Audio Coding 3
Mode extension : CM (complete main)
Format settings, Endianness : Big
Codec ID : A_AC3
Duration : 1h 58mn
Bit rate mode : Constant
Bit rate : 384 Kbps
Channel(s) : 6 channels
Channel positions : Front: L C R, Side: L R, LFE
Sampling rate : 48.0 KHz
Frame rate : 31.250 fps (1536 spf)
Compression mode : Lossy
Stream size : 324 MiB (8%)
Language : English
Default : Yes
Forced : No
Text #1
ID : 3
Format : UTF-8
Codec ID : S_TEXT/UTF8
Codec ID/Info : UTF-8 Plain Text
Duration : 1h 50mn
Bit rate : 113 bps
Count of elements : 2064
Stream size : 92.1 KiB (0%)
Language : Russian
Default : Yes
Forced : Yes
Text #2
ID : 4
Format : UTF-8
Codec ID : S_TEXT/UTF8
Codec ID/Info : UTF-8 Plain Text
Duration : 1h 57mn
Bit rate : 67 bps
Count of elements : 2137
Stream size : 57.9 KiB (0%)
Language : English
Default : No
Forced : No
Text #3
ID : 5
Format : UTF-8
Codec ID : S_TEXT/UTF8
Codec ID/Info : UTF-8 Plain Text
Duration : 1h 57mn
Bit rate : 50 bps
Count of elements : 1790
Stream size : 43.5 KiB (0%)
Language : French
Default : No
Forced : No
Text #4
ID : 6
Format : UTF-8
Codec ID : S_TEXT/UTF8
Codec ID/Info : UTF-8 Plain Text
Duration : 1h 57mn
Bit rate : 55 bps
Count of elements : 1767
Stream size : 48.1 KiB (0%)
Language : Portuguese
Default : No
Forced : No
Text #5
ID : 7
Format : UTF-8
Codec ID : S_TEXT/UTF8
Codec ID/Info : UTF-8 Plain Text
Duration : 1h 57mn
Bit rate : 56 bps
Count of elements : 1794
Stream size : 48.8 KiB (0%)
Language : Spanish
Default : No
Forced : No

[megatrack.top].t163288.torrent
Торрент: Зарегистрирован   [ 2018-10-03 09:45 ]

Скачать torrent

------------------------------

11 KB

Статус: T временная
Скачан: Скачаны:
Размер: 4.05 GB
Оценка:  5 (Голосов: 1)
Поблагодарили: 0  Спасибо
:
 
[Профиль] [ЛС]
Показать сообщения:    

Текущее время: Сегодня 08:32

Часовой пояс: GMT + 2



Вы не можете начинать темы
Вы не можете отвечать на сообщения
Вы не можете редактировать свои сообщения
Вы не можете удалять свои сообщения
Вы не можете голосовать в опросах
Вы не можете прикреплять файлы к сообщениям
Вы можете скачивать файлы




покупка трафика на сайт