<
 
Статистика раздачи
Скачали: [ 2 ]
Размер:  9.53 GB   |    Зарегистрирован:  8 дней   |    Скачан:  2 раза
Сидов:  1 (+0)  [  16 KB/s  ]   Личеров:  0 (+0)  [  0 KB/s  ]   Подробная статистика пиров
 
   
 
 
 
Автор Сообщение

sergey82 ®

Пол:

Стаж: 5 лет 5 месяцев

Сообщений: 237

Торрент-статистика

Информация о фильме
Название: К югу от рая, к западу от ада
Оригинальное название: South of Heaven, West of Hell
Год выпуска: 2000
Выпущено: США
Жанр: Драма, вестерн
Режиссер: Дуайт Йоакам
В ролях: Дуайт Йоакам, Винс Вон, Билли Боб Торнтон, Бриджит Фонда, Питер Фонда, Пол Рубенс, Бад Корт, Майкл Джитер, Бо Хопкинс, Люк Аскью, Джо Ангер, Мэтт Кларк, Ноубл Уиллингэм, Скотт Уилсон, Ричи Монтгомери
О фильме: В маленьком ковбойском городке под названием Лос-Трагос, затерявшемся посреди пустыни в штате Нью-Мексико, есть только один закон, и зовут его маршал Вэл Кэйси. Исполнение служебных обязанностей не представляет для него большого труда. Но в канун Рождества на Вэла и весь городок свалилась большая беда. Печально знаменитая семейная банда Лиланда Генри берет Лос-Трагос в осаду, собираясь ограбить местный банк. Появление банды напоминает Вэлу о прошлом, от которого ему никак не удается бежать. Лишившись в детстве всей своей семьи, он воспитывался в доме Лиланда. Теперь Вэл должен выбирать между благодарностью людям, относившимся к нему как к родному сыну и брату, и служением закону…
Продолжительность: 02:11:44
Перевод: Профессиональный двухголосый
Субтитры: Русские, английские
Навигация по главам: Есть
Файл
Качество: WEB-DL 1080p
Видео: MPEG-4 AVC, 9127 Кбит/сек, 1920x816, 23,976 кадра/сек
Аудио #1: AC3, 6 ch, 384 Кбит/сек | Русский, профессиональный (двухголосый закадровый) Екатеринбург Арт
Аудио #2: EAC3, 6 ch, 640 Кбит/сек | Английский, оригинал

Скриншоты

Инфо-файл

Общее
Уникальный идентификатор : 239339788029370337206672088619358826935 (0xB40F2A9D71AE5B21B9B89CA8938F31B7)
Полное имя : К.югу.от.рая.к.западу.от.ада.2000.WEB-DL.1080p.mkv
Формат : Matroska
Версия формата : Version 2
Размер файла : 9,53 Гбайт
Продолжительность : 2 ч. 11 м.
Режим общего битрейта : Переменный
Общий поток : 10,4 Мбит/сек
Дата кодирования : UTC 2018-10-10 03:10:35
Программа кодирования : mkvmerge v5.8.0 ("No Sleep / Pillow") built on Sep 2 2012 15:37:04
Библиотека кодирования : libebml v1.2.3 + libmatroska v1.3.0
Видео
Идентификатор : 1
Формат : AVC
Формат/Информация : Advanced Video Codec
Профиль формата : High@L4
Настройки формата : CABAC / 4 Ref Frames
Параметр CABAC формата : Да
Параметр RefFrames формата : 4 кадра
Идентификатор кодека : V_MPEG4/ISO/AVC
Продолжительность : 2 ч. 11 м.
Вид битрейта : Переменный
Битрейт : 9127 Кбит/сек
Максимальный битрейт : 15,0 Мбит/сек
Ширина : 1920 пикселей
Высота : 816 пикселей
Соотношение сторон : 2,35:1
Режим частоты кадров : Постоянный
Частота кадров : 23,976 (24000/1001) кадра/сек
Цветовое пространство : YUV
Субдискретизация насыщенности : 4:2:0
Битовая глубина : 8 бит
Тип развёртки : Прогрессивная
Бит/(Пиксели*Кадры) : 0.243
Размер потока : 8,40 Гбайт (88%)
Язык : English
Библиотека кодирования : x264 core 148 r2623 d5b2374
Настройки программы : cabac=1 / ref=4 / deblock=1:-1:-1 / analyse=0x3:0x133 / me=umh / subme=9 / psy=1 / psy_rd=1.00:0.15 / mixed_ref=1 / me_range=24 / chroma_me=1 / trellis=2 / 8x8dct=1 / cqm=0 / deadzone=21,11 / fast_pskip=1 / chroma_qp_offset=-3 / threads=25 / lookahead_threads=4 / sliced_threads=0 / nr=150 / decimate=1 / interlaced=0 / bluray_compat=0 / constrained_intra=0 / bframes=8 / b_pyramid=2 / b_adapt=2 / b_bias=0 / direct=3 / weightb=1 / open_gop=0 / weightp=2 / keyint=120 / keyint_min=61 / scenecut=0 / intra_refresh=0 / rc_lookahead=120 / rc=crf / mbtree=1 / crf=18.0 / qcomp=0.60 / qpmin=0 / qpmax=69 / qpstep=4 / vbv_maxrate=15000 / vbv_bufsize=31250 / crf_max=0.0 / nal_hrd=vbr / filler=0 / ip_ratio=1.40 / aq=3:1.00
По умолчанию : Да
Принудительно : Нет
Цветовой диапазон : Limited
Основные цвета : BT.709
Характеристики трансфера : BT.709
Коэффициенты матрицы : BT.709
Аудио #1
Идентификатор : 2
Формат : AC-3
Формат/Информация : Audio Coding 3
Идентификатор кодека : A_AC3
Продолжительность : 2 ч. 11 м.
Вид битрейта : Постоянный
Битрейт : 384 Кбит/сек
Каналы : 6 каналов
Расположение каналов : Front: L C R, Side: L R, LFE
Частота : 48,0 КГц
Частота кадров : 31,250 кадров/сек (1536 SPF)
Битовая глубина : 16 бит
Метод сжатия : С потерями
Размер потока : 362 Мбайт (4%)
Заголовок : DVO | Екатеринбург Арт
Язык : Russian
По умолчанию : Да
Принудительно : Нет
Аудио #2
Идентификатор : 3
Формат : E-AC-3
Формат/Информация : Enhanced Audio Coding 3
Идентификатор кодека : A_EAC3
Продолжительность : 2 ч. 11 м.
Вид битрейта : Постоянный
Битрейт : 640 Кбит/сек
Каналы : 6 каналов
Расположение каналов : Front: L C R, Side: L R, LFE
Частота : 48,0 КГц
Частота кадров : 187,500 кадров/сек (256 SPF)
Метод сжатия : С потерями
Размер потока : 603 Мбайт (6%)
Заголовок : Original
Язык : English
По умолчанию : Нет
Принудительно : Нет
Текст #1
Идентификатор : 4
Формат : UTF-8
Идентификатор кодека : S_TEXT/UTF8
Идентификатор кодека/Информация : UTF-8 Plain Text
Язык : Russian
По умолчанию : Нет
Принудительно : Нет
Текст #2
Идентификатор : 5
Формат : UTF-8
Идентификатор кодека : S_TEXT/UTF8
Идентификатор кодека/Информация : UTF-8 Plain Text
Язык : English
По умолчанию : Нет
Принудительно : Нет
Меню
00:00:00.000 : ru:01. Вступительные Титры
00:05:01.934 : ru:02. Подарки На Рождество
00:10:15.765 : ru:03. Прибытие
00:12:47.316 : ru:04. Долгий Срок
00:15:34.216 : ru:05. Доставка
00:19:20.609 : ru:06. Ограбление
00:23:46.041 : ru:07. Военный Департамент
00:29:08.863 : ru:08. Заключённый
00:32:55.606 : ru:09. Побег
00:38:30.074 : ru:10. Связь
00:42:17.217 : ru:11. Смит
00:46:25.165 : ru:12. Представление
00:51:08.131 : ru:13. Призраки
00:55:35.048 : ru:14. Запахи
00:58:22.882 : ru:15. Понимание
01:03:39.298 : ru:16. Воспоминания
01:06:37.143 : ru:17. Температура
01:13:22.881 : ru:18. Огонь
01:16:06.411 : ru:19. Бизнес
01:24:22.453 : ru:20. Перемена Планов
01:28:14.605 : ru:21. Правосудие
01:32:47.328 : ru:22. Заместитель
01:36:57.698 : ru:23. Гостеприимство
01:44:38.855 : ru:24. Дух
01:48:58.348 : ru:25. Бремя
01:54:30.446 : ru:26. Похороны
01:58:59.355 : ru:27. Взрывчатка
02:02:57.186 : ru:28. Бытие
02:05:32.608 : ru:29. Среди Живых
02:08:31.286 : ru:30. Финальные Титры

[megatrack.top].t163299.torrent
Торрент: Зарегистрирован   [ 2018-10-11 09:16 ]

Скачать torrent

------------------------------

49 KB

Статус: проверено
Скачан: Скачаны:
Размер: 9.53 GB
Оценка:  5 (Голосов: 1)
Поблагодарили: 0  Спасибо
:
 
[Профиль] [ЛС]
Показать сообщения:    

Текущее время: Сегодня 08:22

Часовой пояс: GMT + 2



Вы не можете начинать темы
Вы не можете отвечать на сообщения
Вы не можете редактировать свои сообщения
Вы не можете удалять свои сообщения
Вы не можете голосовать в опросах
Вы не можете прикреплять файлы к сообщениям
Вы можете скачивать файлы




покупка трафика на сайт