<
 
Статистика раздачи
Качают: [ 1 ]
Скачали: [ 1 ]
Размер:  862 MB   |    Зарегистрирован:  8 дней   |    Скачан:  1 раз
Сидов:  0 (+0)  [  0 KB/s  ]   Личеров:  0 (+0)  [  0 KB/s  ]   Подробная статистика пиров
 
   
 
 
 
Автор Сообщение

sergey82 ®

Пол:

Стаж: 5 лет 5 месяцев

Сообщений: 237

Торрент-статистика

Информация о фильме
Название: Первый свет
Оригинальное название: First Light
Год выхода: 2018
Жанр: Триллер
Режиссер: Джейсон Стоун
В ролях: Теодор Пеллерен, Кристин Бут, Кейт Бёртон, Джош Круддас, Шон Дивайн, Ингрид Дион, Хейко Эффенбергер, Дэна Фрадкин, Александр Гомес, Эрик Гидинг и другие
О фильме:
Фильм повествует о старшекласснице Алекс Лейни. Однажды ночью она сталкивается с таинственными огнями, появившимися над ее маленьким городом. Вскоре она узнает, что у нее появились опасные сверхспособности. Не зная, куда податься, девушка обращается за помощью к другу детства Шону. А тем временем власти следуют за ними по пятам, желая выяснить, что случилось с Алекс.

Страна: США, Oddfellows Entertainment
Продолжительность: 01:31:14
Перевод: Любительский (двухголосый закадровый) | HiWay Grope
Файл
Кодек: XviD
Качество: WEBRip
Видео: 720x304, 25 fps, ~927 kbps, 0.17 bit/pixel
Звук:
Аудио rus: AC3, 48 kHz, 6 ch, 384 Kbps
Субтитры: отсутствуют
Реклама: присутствует
Семпл

MediaInfo&#58;

General
Complete name : D:First.Light.2018.WEBRip.HiWayGropeFirst.Light.2018.WEBRip.HiWayGrope.avi
Format : AVI
Format/Info : Audio Video Interleave
File size : 862 MiB
Duration : 1 h 31 min
Overall bit rate : 1 321 kb/s
Writing application : VirtualDubMod 1.5.10.2 (build 2540/release)
Writing library : VirtualDubMod build 2540/release
Video
ID : 0
Format : xvid
Codec ID : xvid
Duration : 1 h 31 min
Bit rate : 927 kb/s
Width : 720 pixels
Height : 304 pixels
Display aspect ratio : 2.35:1
Frame rate : 25.000 FPS
Bits/(Pixel*Frame) : 0.169
Stream size : 605 MiB (70%)
Audio
ID : 1
Format : AC-3
Format/Info : Audio Coding 3
Codec ID : 2000
Duration : 1 h 31 min
Bit rate mode : Constant
Bit rate : 384 kb/s
Channel(s) : 6 channels
Channel positions : Front: L C R, Side: L R, LFE
Sampling rate : 48.0 kHz
Frame rate : 31.250 FPS (1536 SPF)
Bit depth : 16 bits
Compression mode : Lossy
Stream size : 251 MiB (29%)
Alignment : Split accross interleaves
Interleave, duration : 40 ms (1.00 video frame)
Interleave, preload duration : 500 ms
Service kind : Complete Main

Скриншоты


[megatrack.top].t163305.torrent
Торрент: Зарегистрирован   [ 2018-10-11 09:36 ]

Скачать torrent

------------------------------

18 KB

Статус: T временная
Скачан: Скачаны:
Размер: 862 MB
Оценка:  5 (Голосов: 1)
Поблагодарили: 0  Спасибо
:
 
[Профиль] [ЛС]
Показать сообщения:    

Текущее время: Сегодня 08:11

Часовой пояс: GMT + 2



Вы не можете начинать темы
Вы не можете отвечать на сообщения
Вы не можете редактировать свои сообщения
Вы не можете удалять свои сообщения
Вы не можете голосовать в опросах
Вы не можете прикреплять файлы к сообщениям
Вы можете скачивать файлы




покупка трафика на сайт