<
 
Статистика раздачи
Скачали: [ 2 ]
Размер:  13.26 GB   |    Зарегистрирован:  1 месяц 4 дня   |    Скачан:  2 раза
Сидов:  0 (+0)  [  0 KB/s  ]   Личеров:  0 (+0)  [  0 KB/s  ]   Подробная статистика пиров
 
   
 
 
 
Автор Сообщение

sergey82 ®

Пол:

Стаж: 5 лет 6 месяцев

Сообщений: 237

Торрент-статистика

Бои без правил / A Prayer Before Dawn
«The Conquest Begins»-Год выпуска: 2017
Страна: Франция, Великобритания, Камбоджа, США, Китай
Производство: Senorita Films, Indochina Productions, HanWay Films
Жанр: Боевик, драма, криминал, биография, спорт
Режиссёр: Жан-Стефан Совер
В ролях: Джо Коул, Витхая Пансрингарм, Паня Йиммумрхай, Порнчанок Мабкланг, Николас Шейк, Билли Мур, Сура Сирмалай, Сакда Ниамхом, Сомлок Камсинг, Чалоемпорн Саватсук
Перевод: Профессиональный (многоголосый, закадровый) | HDRezka Studio
Субтитры: Русские (полные), Английские (полные, SDH)
Реклама: Отсутствует
Описание: Молодой британец Билли Мур попадает в одну из тюрем Таиланда, известную своей жестокостью и невыносимыми условиями для заключённых. Чтобы выжить, Билли решает заняться муай-тай - тайским боксом, одним из самых жёстких видов боевых искусств.

Качество: BDRip 1080p | BluRay Disc | A.Prayer.Before.Dawn.2017.1080p.Blu-ray.AVC.DTS-HD.MA.5.1-OCULAR
Продолжительность: 01:56:43
Формат: MKV
Видео кодек: MPEG-4 AVC
Аудио кодек: AC3
Видео: 1920x808 (2.40:1), 23,976 fps, x264 ~11 600 kbps avg, 0.391 bit/pixel
Аудио #1: 48 kHz, AC3 Dolby Digital, 2 (L,R) ch, ~192.00 kbps avg | RUS (HDRezka Studio)
Аудио #2: 48 kHz, DTS , 3/2 (L,C,R,l,r) + LFE ch, ~1 509.00 kbps avg | ENG
Дата премьеры (мир): 19 мая 2017
Дата премьеры (РФ): 20 сентября 2018, «Экспонента»

MediaInfo

x264 [info]: frame I:821 Avg QP:15.13 size:175669
x264 [info]: frame P:44283 Avg QP:18.04 size:119787
x264 [info]: frame B:122810 Avg QP:19.29 size: 59397
-------------------------------------------------
Общее
Уникальный идентификатор : 177241047102505266238588180692855831394 (0x8557624DC0EE5647AF6EC35B07A23B62)
Полное имя : D:ЗагрузкиA.Prayer.Before.Dawn.2017.x264.BDRip.(1080p).OlLanDGroup.mkv
Формат : Matroska
Версия формата : Version 4 / Version 2
Размер файла : 13,3 Гбайт
Продолжительность : 1 ч. 56 м.
Общий поток : 16,3 Мбит/сек
Название фильма : Бои без правил.2017.Rip by: ollan
Дата кодирования : UTC 2018-10-13 07:57:53
Программа кодирования : mkvmerge v6.5.0 ("Isn"t she lovely") built on Oct 20 2013 12:50:05
Библиотека кодирования : libebml v1.3.0 + libmatroska v1.4.1
Обложка : Yes
Attachments : Cover - A.Prayer.Before.Dawn.png
Видео
Идентификатор : 1
Формат : AVC
Формат/Информация : Advanced Video Codec
Профиль формата : High@L4.1
Настройки формата : CABAC / 5 Ref Frames
Параметр CABAC формата : Да
Параметр ReFrames формата : 5 кадров
Идентификатор кодека : V_MPEG4/ISO/AVC
Продолжительность : 1 ч. 56 м.
Битрейт : 14,6 Мбит/сек
Ширина : 1920 пикселей
Высота : 808 пикселей
Соотношение сторон : 2,40:1
Режим частоты кадров : Постоянный
Частота кадров : 23,976 (24000/1001) кадра/сек
Цветовое пространство : YUV
Субдискретизация насыщенности : 4:2:0
Битовая глубина : 8 бит
Тип развёртки : Прогрессивная
Бит/(Пиксели*Кадры) : 0.391
Размер потока : 11,6 Гбайт (88%)
Библиотека кодирования : x264 core 146 r2538 121396c
Настройки программы : cabac=1 / ref=5 / deblock=1:-3:-3 / analyse=0x3:0x133 / me=umh / subme=11 / psy=1 / psy_rd=0.95:0.10 / mixed_ref=1 / me_range=64 / chroma_me=1 / trellis=2 / 8x8dct=1 / cqm=0 / deadzone=21,11 / fast_pskip=0 / chroma_qp_offset=-3 / threads=12 / lookahead_threads=3 / sliced_threads=0 / nr=0 / decimate=0 / interlaced=0 / bluray_compat=0 / constrained_intra=0 / bframes=10 / b_pyramid=2 / b_adapt=2 / b_bias=0 / direct=3 / weightb=1 / open_gop=0 / weightp=2 / keyint=240 / keyint_min=23 / scenecut=40 / intra_refresh=0 / rc_lookahead=40 / rc=2pass / mbtree=0 / bitrate=14559 / ratetol=1.0 / qcomp=0.60 / qpmin=0 / qpmax=69 / qpstep=4 / cplxblur=20.0 / qblur=0.5 / vbv_maxrate=50000 / vbv_bufsize=62500 / nal_hrd=none / filler=0 / ip_ratio=1.40 / pb_ratio=1.30 / aq=1:1.00
Язык : English
Default : Да
Forced : Нет
Аудио #1
Идентификатор : 2
Формат : AC-3
Формат/Информация : Audio Coding 3
Идентификатор кодека : A_AC3
Продолжительность : 1 ч. 56 м.
Вид битрейта : Постоянный
Битрейт : 192 Кбит/сек
Каналы : 2 канала
Расположение каналов : Front: L R
Частота : 48,0 КГц
Частота кадров : 31,250 кадров/сек (1536 SPF)
Битовая глубина : 16 бит
Метод сжатия : С потерями
Размер потока : 160 Мбайт (1%)
Заголовок : MVO [HDRezka Studio]
Язык : Russian
Service kind : Complete Main
Default : Да
Forced : Нет
Аудио #2
Идентификатор : 3
Формат : DTS
Формат/Информация : Digital Theater Systems
Идентификатор кодека : A_DTS
Продолжительность : 1 ч. 56 м.
Вид битрейта : Постоянный
Битрейт : 1509 Кбит/сек
Каналы : 6 каналов
Расположение каналов : Front: L C R, Side: L R, LFE
Частота : 48,0 КГц
Частота кадров : 93,750 кадра/сек (512 SPF)
Битовая глубина : 16 бит
Метод сжатия : С потерями
Размер потока : 1,23 Гбайт (9%)
Язык : English
Default : Нет
Forced : Нет
Текст #1
Идентификатор : 4
Формат : UTF-8
Идентификатор кодека : S_TEXT/UTF8
Идентификатор кодека/Информация : UTF-8 Plain Text
Заголовок : Full
Язык : Russian
Default : Нет
Forced : Нет
Текст #2
Идентификатор : 5
Формат : UTF-8
Идентификатор кодека : S_TEXT/UTF8
Идентификатор кодека/Информация : UTF-8 Plain Text
Заголовок : Full
Язык : English
Default : Нет
Forced : Нет
Текст #3
Идентификатор : 6
Формат : UTF-8
Идентификатор кодека : S_TEXT/UTF8
Идентификатор кодека/Информация : UTF-8 Plain Text
Заголовок : SDH
Язык : English
Default : Нет
Forced : Нет
Меню
00:00:00.000 : en:Chapter 01
00:09:36.200 : en:Chapter 02
00:18:15.135 : en:Chapter 03
00:27:09.002 : en:Chapter 04
00:37:20.696 : en:Chapter 05
00:48:31.241 : en:Chapter 06
01:01:07.162 : en:Chapter 07
01:10:44.948 : en:Chapter 08
01:21:01.022 : en:Chapter 09
01:34:04.639 : en:Chapter 10
01:44:57.874 : en:Chapter 11
01:53:26.800 : en:Chapter 12
01:56:43.329 : en:Chapter 13

[megatrack.top].t163309.torrent
 ЗОЛОТАЯ РАЗДАЧА! СКАЧАННОЕ НЕ ЗАСЧИТЫВАЕТСЯ! 
Торрент: Зарегистрирован   [ 2018-10-13 11:58 ]

Скачать torrent

------------------------------

34 KB

Статус: проверено
Скачан: Скачаны:
Размер: 13.26 GB
Оценка:  5 (Голосов: 1)
Поблагодарили: 1  Спасибо   (список)
:
 
[Профиль] [ЛС]
Показать сообщения:    

Текущее время: Сегодня 17:32

Часовой пояс: GMT + 2



Вы не можете начинать темы
Вы не можете отвечать на сообщения
Вы не можете редактировать свои сообщения
Вы не можете удалять свои сообщения
Вы не можете голосовать в опросах
Вы не можете прикреплять файлы к сообщениям
Вы можете скачивать файлы




покупка трафика на сайт