<
 
Статистика раздачи
Скачали: [ 1 ]
Размер:  1.8 GB   |    Зарегистрирован:  1 месяц 2 дня   |    Скачан:  1 раз
Сидов:  0 (+0)  [  0 KB/s  ]   Личеров:  0 (+0)  [  0 KB/s  ]   Подробная статистика пиров
 
   
 
 
 
Автор Сообщение

sergey82 ®

Пол:

Стаж: 5 лет 6 месяцев

Сообщений: 237

Торрент-статистика

Отель «Артемида» / Hotel Artemis
«Никакого оружия. Никаких копов. Никаких убийств других пациентов»-Год выпуска: 2018
Страна: Великобритания, США
Производство: The Ink Factory, Marc Platt Productions, Point of No Return
Жанр: Боевик, триллер, криминал
Режиссёр: Дрю Пирс
В ролях: Джоди Фостер, Стерлинг К. Браун, София Бутелла, Джефф Голдблюм, Брайан Тайри Генри, Дженни Слейт, Закари Куинто, Чарли Дэй, Дэйв Батиста, Кеннет Чои
Перевод: Дублированный | [iTunes]
Субтитры: Английские (полные)
Реклама: Отсутствует
Описание: В Лос-Анджелесе недалекого будущего каждый уважающий себя преступник отправляется за медицинской помощью к суровой Медсестре, которая содержит отель «Артемида». Здесь члены особого клуба могут получить лечение и отдохнуть. Но парочка новых клиентов случайно приводит за собой местного криминального босса, желающего получить заветный предмет, похищенный в результате ограбления. Постояльцам отеля придется немало попотеть, ведь внутри строго-настрого запрещено любое оружие.

Качество: BDRip-AVC
Продолжительность: 01:33:46
Формат: MKV
Видео кодек: MPEG-4 AVC
Аудио кодек: AC3
Видео: 1024x426 (2.40:1), 23,976 fps, x264 ~1 923 kbps avg, 0.184 bit/pixel
Аудио #1: 48 kHz, AC3 Dolby Digital, 3/2 (L,C,R,l,r) + LFE ch, ~384.00 kbps avg | RUS (iTunes)
Аудио #2: 48 kHz, AC3 Dolby Digital, 3/2 (L,C,R,l,r) + LFE ch, ~448.00 kbps avg | ENG
Дата премьеры (мир): 7 июня 2018
Дата премьеры (РФ): 23 августа 2018, «Централ Партнершип»
Цифровой релиз: 15 октября 2018, «Централ Партнершип»

MediaInfo

Общее
Уникальный идентификатор : 14703209957810393316070606526558340088 (0xB0FBC38458560994E4DDDEB5B6583F8)
Полное имя : F:OlLanDGroupHotel.Artemis.2018.BDRip(AVC).OlLanDGroup.mkv
Формат : Matroska
Версия формата : Version 4 / Version 2
Размер файла : 1,80 Гбайт
Продолжительность : 1 ч. 33 м.
Общий поток : 2754 Кбит/сек
Название фильма : Hotel.Artemis.2018 #TorpedoUK#
Дата кодирования : UTC 2018-10-15 10:40:23
Программа кодирования : mkvmerge v25.0.0 ("Prog Noir") 64-bit
Библиотека кодирования : libebml v1.3.6 + libmatroska v1.4.9
Обложка : Yes
Attachments : small_cover_land.jpg / cover.jpg / cover_land.jpg / small_cover.jpg
Видео
Идентификатор : 1
Формат : AVC
Формат/Информация : Advanced Video Codec
Профиль формата : High@L4.1
Параметр CABAC формата : Да
Параметр ReFrames формата : 10 кадров
Идентификатор кодека : V_MPEG4/ISO/AVC
Продолжительность : 1 ч. 33 м.
Битрейт : 1923 Кбит/сек
Ширина : 1024 пикселя
Высота : 426 пикселей
Соотношение сторон : 2,40:1
Режим частоты кадров : Постоянный
Частота кадров : 23,976 (24000/1001) кадра/сек
Цветовое пространство : YUV
Субдискретизация насыщенности : 4:2:0
Битовая глубина : 8 бит
Тип развёртки : Прогрессивная
Бит/(Пиксели*Кадры) : 0.184
Размер потока : 1,26 Гбайт (70%)
Библиотека кодирования : x264 core 146 r2538 121396c
Настройки программы : cabac=1 / ref=10 / deblock=1:-3:-3 / analyse=0x3:0x113 / me=umh / subme=11 / psy=1 / psy_rd=1.00:0.03 / mixed_ref=1 / me_range=48 / chroma_me=1 / trellis=2 / 8x8dct=1 / cqm=0 / deadzone=21,11 / fast_pskip=1 / chroma_qp_offset=-3 / threads=6 / lookahead_threads=1 / sliced_threads=0 / nr=0 / decimate=1 / interlaced=0 / bluray_compat=0 / constrained_intra=0 / bframes=10 / b_pyramid=2 / b_adapt=2 / b_bias=0 / direct=3 / weightb=1 / open_gop=0 / weightp=2 / keyint=240 / keyint_min=23 / scenecut=40 / intra_refresh=0 / rc_lookahead=40 / rc=2pass / mbtree=0 / bitrate=1923 / ratetol=1.0 / qcomp=0.60 / qpmin=0 / qpmax=69 / qpstep=4 / cplxblur=20.0 / qblur=0.5 / vbv_maxrate=50000 / vbv_bufsize=62500 / nal_hrd=none / filler=0 / ip_ratio=1.40 / pb_ratio=1.30 / aq=1:1.00
Язык : English
Default : Да
Forced : Нет
Аудио #1
Идентификатор : 2
Формат : AC-3
Формат/Информация : Audio Coding 3
Расширение режима : CM (complete main)
Параметр Endianness формата : Big
Идентификатор кодека : A_AC3
Продолжительность : 1 ч. 33 м.
Вид битрейта : Постоянный
Битрейт : 384 Кбит/сек
Каналы : 6 каналов
Расположение каналов : Front: L C R, Side: L R, LFE
Частота : 48,0 КГц
Частота кадров : 31,250 кадров/сек (1536 spf)
Битовая глубина : 16 бит
Метод сжатия : С потерями
Размер потока : 257 Мбайт (14%)
Заголовок : DUB [iTunes]
Язык : Russian
Default : Да
Forced : Нет
Аудио #2
Идентификатор : 3
Формат : AC-3
Формат/Информация : Audio Coding 3
Расширение режима : CM (complete main)
Параметр Endianness формата : Big
Идентификатор кодека : A_AC3
Продолжительность : 1 ч. 33 м.
Вид битрейта : Постоянный
Битрейт : 448 Кбит/сек
Каналы : 6 каналов
Расположение каналов : Front: L C R, Side: L R, LFE
Частота : 48,0 КГц
Частота кадров : 31,250 кадров/сек (1536 spf)
Битовая глубина : 16 бит
Метод сжатия : С потерями
Размер потока : 300 Мбайт (16%)
Заголовок : [Original]
Язык : English
Default : Нет
Forced : Нет
Текст
Идентификатор : 4
Формат : UTF-8
Идентификатор кодека : S_TEXT/UTF8
Идентификатор кодека/Информация : UTF-8 Plain Text
Продолжительность : 1 ч. 29 м.
Битрейт : 69 бит/сек
Count of elements : 1455
Размер потока : 45,8 Кбайт (0%)
Заголовок : Full
Язык : English
Default : Нет
Forced : Нет
Меню
00:00:00.000 : en:Chapter 01
00:05:09.309 : en:Chapter 02
00:13:06.285 : en:Chapter 03
00:17:40.142 : en:Chapter 04
00:22:09.619 : en:Chapter 05
00:27:59.761 : en:Chapter 06
00:33:34.846 : en:Chapter 07
00:38:58.502 : en:Chapter 08
00:42:21.872 : en:Chapter 09
00:46:52.851 : en:Chapter 10
00:52:45.871 : en:Chapter 11
00:56:43.274 : en:Chapter 12
01:00:13.651 : en:Chapter 13
01:04:05.258 : en:Chapter 14
01:08:45.037 : en:Chapter 15
01:13:52.428 : en:Chapter 16
01:18:17.693 : en:Chapter 17
01:24:49.793 : en:Chapter 18

Скриншоты




[megatrack.top].t163315.torrent
Торрент: Зарегистрирован   [ 2018-10-15 13:44 ]

Скачать torrent

------------------------------

19 KB

Статус: проверено
Скачан: Скачаны:
Размер: 1.8 GB
Оценка:  5 (Голосов: 2)
Поблагодарили: 1  Спасибо   (список)
:
 
[Профиль] [ЛС]
Показать сообщения:    

Текущее время: Сегодня 16:56

Часовой пояс: GMT + 2



Вы не можете начинать темы
Вы не можете отвечать на сообщения
Вы не можете редактировать свои сообщения
Вы не можете удалять свои сообщения
Вы не можете голосовать в опросах
Вы не можете прикреплять файлы к сообщениям
Вы можете скачивать файлы




покупка трафика на сайт