<
 
Статистика раздачи
Скачали: [ 1 ]
Размер:  3.58 GB   |    Зарегистрирован:  1 месяц 3 дня   |    Скачан:  1 раз
Сидов:  0 (+0)  [  0 KB/s  ]   Личеров:  0 (+0)  [  0 KB/s  ]   Подробная статистика пиров
 
   
 
 
 
Автор Сообщение

sergey82 ®

Пол:

Стаж: 5 лет 6 месяцев

Сообщений: 237

Торрент-статистика

Информация о фильме
Название: Что тебе нужно для жизни
Оригинальное название: What Keeps You Alive
Год выхода: 2018
Жанр: Ужасы, триллер
Режиссер: Колин Минихан
В ролях: Ханна Эмили Андерсон, Бриттани Аллен, Марта МакАйзек, Джои Клейн, Шарлотта Линдси Мэррон
О фильме:
Лесбийская пара Джеки и Джулс приезжает на выходные в дом у озера, где Джеки провела детство. Они собираются отметить год совместной жизни и приятно провести время на природе. Там они встречают Сару, с которой Джеки провела детство, а та, кажется, не очень рада видеть давнюю подругу. Пообщавшись с Сарой, Джулс выясняет неизвестные ей ранее подробности из жизни супруги, и вскоре ей предстоит узнать благоверную с новой стороны.

Страна: Канада
Студия: Digital Interference Productions
Продолжительность: 01:39:15
Перевод: Любительский одноголосый | Хихидок
Файл
Кодек: AVC
Качество: WEB-DL 1080p | What.Keeps.You.Alive.2018.1080p.WEB-DL.DD5.1.H264-FGT
Видео: MPEG-4 AVC, 1920x804, 4515 Кбит/с, 23.976 кадр/с
Звук: Небольшая реклама в титрах
Аудио #1: Русский ( АС3, 2ch, 256 Кбит/с, 48.0 KHz) Любительский (одноголосый, закадровый) Хихикающий доктор
Аудио #2: Английский ( АС3, 6ch, 384 Кбит/с, 48.0 KHz)
Субтитры: aнглийские

MediaInfo

Источник: What.Keeps.You.Alive.2018.1080p.WEB-DL.DD5.1.H264-FGT
General
Unique ID : 172601928884418887404214381339143636512 (0x81D9EC1DCD6FBC67A7A4877FB6510620)
Complete name : What.Keeps.You.Alive.2018.WEB-DL.1080p.mkv
Format : Matroska
Format version : Version 4
File size : 3.58 GiB
Duration : 1 h 39 min
Overall bit rate : 5 157 kb/s
Encoded date : UTC 2018-10-14 00:55:50
Writing application : mkvmerge v7.1.0 ("Good Love") 64bit built on Jul 27 2014 13:06:55
Writing library : libebml v1.3.0 + libmatroska v1.4.1
Video
ID : 1
Format : AVC
Format/Info : Advanced Video Codec
Format profile : High@L4
Format settings : CABAC / 5 Ref Frames
Format settings, CABAC : Yes
Format settings, ReFrames : 5 frames
Codec ID : V_MPEG4/ISO/AVC
Duration : 1 h 39 min
Bit rate : 4 515 kb/s
Width : 1 920 pixels
Height : 804 pixels
Display aspect ratio : 2.40:1
Frame rate mode : Constant
Frame rate : 23.976 (24000/1001) FPS
Color space : YUV
Chroma subsampling : 4:2:0
Bit depth : 8 bits
Scan type : Progressive
Bits/(Pixel*Frame) : 0.122
Stream size : 3.13 GiB (88%)
Language : English
Default : Yes
Forced : No
Color range : Limited
Color primaries : BT.709
Transfer characteristics : BT.709
Matrix coefficients : BT.709
Audio #1
ID : 2
Format : AC-3
Format/Info : Audio Coding 3
Commercial name : Dolby Digital
Codec ID : A_AC3
Duration : 1 h 39 min
Bit rate mode : Constant
Bit rate : 256 kb/s
Channel(s) : 2 channels
Channel layout : L R
Sampling rate : 48.0 kHz
Frame rate : 31.250 FPS (1536 SPF)
Bit depth : 16 bits
Compression mode : Lossy
Stream size : 182 MiB (5%)
Language : Russian
Service kind : Complete Main
Default : Yes
Forced : No
Audio #2
ID : 3
Format : AC-3
Format/Info : Audio Coding 3
Commercial name : Dolby Digital
Codec ID : A_AC3
Duration : 1 h 39 min
Bit rate mode : Constant
Bit rate : 384 kb/s
Channel(s) : 6 channels
Channel layout : L R C LFE Ls Rs
Sampling rate : 48.0 kHz
Frame rate : 31.250 FPS (1536 SPF)
Bit depth : 16 bits
Compression mode : Lossy
Stream size : 273 MiB (7%)
Language : English
Service kind : Complete Main
Default : No
Forced : No
Text
ID : 4
Format : UTF-8
Codec ID : S_TEXT/UTF8
Codec ID/Info : UTF-8 Plain Text
Duration : 1 h 32 min
Bit rate : 28 b/s
Count of elements : 753
Stream size : 19.5 KiB (0%)
Language : English
Default : No
Forced : No
Menu
00:00:00.000 : en:1
00:12:56.650 : en:2
00:21:24.491 : en:3
00:32:06.299 : en:4
00:47:01.026 : en:5
01:00:00.388 : en:6
01:11:19.942 : en:7
01:20:33.912 : en:8
01:36:59.855 : en:9

[megatrack.top].t163318.torrent
Торрент: Зарегистрирован   [ 2018-10-15 14:01 ]

Скачать torrent

------------------------------

19 KB

Статус: T временная
Скачан: Скачаны:
Размер: 3.58 GB
Оценка:  5 (Голосов: 2)
Поблагодарили: 1  Спасибо   (список)
:
 
[Профиль] [ЛС]
Показать сообщения:    

Текущее время: Сегодня 14:10

Часовой пояс: GMT + 2



Вы не можете начинать темы
Вы не можете отвечать на сообщения
Вы не можете редактировать свои сообщения
Вы не можете удалять свои сообщения
Вы не можете голосовать в опросах
Вы не можете прикреплять файлы к сообщениям
Вы можете скачивать файлы




покупка трафика на сайт