<
 
Статистика раздачи
Скачали: [ 4 ]
Размер:  747 MB   |    Зарегистрирован:  28 дней   |    Скачан:  4 раза
Сидов:  0 (+0)  [  0 KB/s  ]   Личеров:  0 (+0)  [  0 KB/s  ]   Подробная статистика пиров
 
   
 
 
 
Автор Сообщение

sergey82 ®

Пол:

Стаж: 5 лет 6 месяцев

Сообщений: 237

Торрент-статистика

Информация о фильме
Название: Апостол
Оригинальное название: Apostle
Год выхода: 2018
Жанр: Ужасы, триллер, детектив
Режиссер: Гарет Эванс
В ролях: Кристин Фросет, Дэн Стивенс, Люси Бойнтон, Майкл Шин, Билл Милнер, Марк Льюис Джонс, Элен Риз, Росс О Хеннесси, Пино Майелло
О фильме :
Томас Ричардсон-английсский искатель приключений, возвращается домой в Лондон в 1905 году. Там он узнает, что его родную сестру похитила группа священников, которая создала свою секту на одном из мрачных английских островов. Томас отправляется на ее поиски. Остров живет в своем особом микроклимате, где бал правит группа священнослужителей. Герой начинает задавать слишком много вопросов, что бы найти свою сестру, и они решают избавиться от него. Сможет ли Томас найти свою сестру и выжить, когда на него охотиться чуть ли не половина населения острова? Какие тайны у него самого, и какими навыками он обладает? Поможет ли Бог, когда его служители хотят тебя убить?

Страна: США, Великобритания
Студия: One More One Productions, Severn Screen, XYZ Films
Продолжительность: 02:09:26
Перевод: Любительский (двухголосый, закадровый) | LakeFilms
Файл
Формат: MKV
Качество: WEBRip-AVC
Видео: MPEG-4 AVC, 768x320, ~ 729 Кбит/с
Аудио: AAC-HE, 2 ch, ~ 76 Кбит/с
Субтитры: Русские, английские

MI

Общее
Уникальный идентификатор : 223537429661255508371179014430331904846 (0xA82BBE31D04EAB48821D0E1C0C06234E)
Полное имя : D:MOVIESApostle.2018.ExKinoRay.mkv
Формат : Matroska
Версия формата : Version 4 / Version 2
Размер файла : 747 Мбайт
Продолжительность : 2 ч. 9 м.
Общий поток : 807 Кбит/сек
Дата кодирования : UTC 2018-10-15 04:13:17
Программа кодирования : mkvmerge v15.0.0 ("Duel with the Devil") 64-bit
Библиотека кодирования : libebml v1.3.5 + libmatroska v1.4.5
Видео
Идентификатор : 1
Формат : AVC
Формат/Информация : Advanced Video Codec
Профиль формата : High@L4.1
Параметр CABAC формата : Да
Параметр RefFrames формата : 12 кадров
Идентификатор кодека : V_MPEG4/ISO/AVC
Продолжительность : 2 ч. 9 м.
Битрейт : 729 Кбит/сек
Ширина : 768 пикселей
Высота : 320 пикселей
Соотношение сторон : 2,40:1
Режим частоты кадров : Постоянный
Частота кадров : 24,000 кадра/сек
Цветовое пространство : YUV
Субдискретизация насыщенности : 4:2:0
Битовая глубина : 8 бит
Тип развёртки : Прогрессивная
Бит/(Пиксели*Кадры) : 0.124
Размер потока : 675 Мбайт (90%)
Библиотека кодирования : x264 core 152 r2851kMod ba24899
Настройки программы : cabac=1 / ref=12 / deblock=1:-3:-3 / analyse=0x3:0x133 / me=umh / subme=10 / psy=1 / fade_compensate=0.00 / psy_rd=1.00:0.15 / mixed_ref=1 / me_range=32 / chroma_me=1 / trellis=2 / 8x8dct=1 / cqm=0 / deadzone=21,11 / fast_pskip=0 / chroma_qp_offset=-3 / threads=6 / lookahead_threads=1 / sliced_threads=0 / nr=0 / decimate=0 / interlaced=0 / bluray_compat=0 / constrained_intra=0 / bframes=11 / b_pyramid=2 / b_adapt=2 / b_bias=0 / direct=3 / weightb=1 / open_gop=0 / weightp=2 / keyint=240 / keyint_min=23 / scenecut=40 / intra_refresh=0 / rc_lookahead=40 / rc=2pass / mbtree=1 / bitrate=729 / ratetol=1.0 / qcomp=0.60 / qpmin=0 / qpmax=69 / qpstep=4 / cplxblur=20.0 / qblur=0.5 / ip_ratio=1.40 / aq=3:1.00
Default : Да
Forced : Нет
Аудио
Идентификатор : 2
Формат : AAC
Формат/Информация : Advanced Audio Codec
Профиль формата : HE-AAC / LC
Идентификатор кодека : A_AAC
Продолжительность : 2 ч. 9 м.
Битрейт : 76,0 Кбит/сек
Каналы : 2 канала
Расположение каналов : Front: L R
Частота : 48,0 КГц / 24,0 КГц
Частота кадров : 23,438 кадра/сек (1024 SPF)
Метод сжатия : С потерями
Задержка видео : 31 мс.
Размер потока : 70,4 Мбайт (9%)
Язык : Russian
Default : Да
Forced : Нет
Текст #1
Идентификатор : 3
Формат : UTF-8
Идентификатор кодека : S_TEXT/UTF8
Идентификатор кодека/Информация : UTF-8 Plain Text
Продолжительность : 2 ч. 9 м.
Битрейт : 38 бит/сек
ElementCount : 815
Размер потока : 36,3 Кбайт (0%)
Заголовок : Full
Язык : Russian
Default : Нет
Forced : Нет
Текст #2
Идентификатор : 4
Формат : UTF-8
Идентификатор кодека : S_TEXT/UTF8
Идентификатор кодека/Информация : UTF-8 Plain Text
Продолжительность : 2 м. 58 с.
Битрейт : 2 бит/сек
ElementCount : 2
Размер потока : 51,0 байт (0%)
Заголовок : English (Forced)
Язык : English
Default : Нет
Forced : Нет
Текст #3
Идентификатор : 5
Формат : UTF-8
Идентификатор кодека : S_TEXT/UTF8
Идентификатор кодека/Информация : UTF-8 Plain Text
Продолжительность : 2 ч. 1 м.
Битрейт : 24 бит/сек
ElementCount : 907
Размер потока : 21,6 Кбайт (0%)
Заголовок : Full
Язык : English
Default : Нет
Forced : Нет
Текст #4
Идентификатор : 6
Формат : UTF-8
Идентификатор кодека : S_TEXT/UTF8
Идентификатор кодека/Информация : UTF-8 Plain Text
Продолжительность : 2 ч. 8 м.
Битрейт : 28 бит/сек
ElementCount : 1147
Размер потока : 27,0 Кбайт (0%)
Заголовок : SDH
Язык : English
Default : Нет
Forced : Нет

Скриншоты


[megatrack.top].t163319.torrent
Торрент: Зарегистрирован   [ 2018-10-15 14:06 ]

Скачать torrent

------------------------------

16 KB

Статус: T временная
Скачан: Скачаны:
Размер: 747 MB
Оценка:  5 (Голосов: 2)
Поблагодарили: 2  Спасибо   (список)
:
 
[Профиль] [ЛС]
Показать сообщения:    

Текущее время: Сегодня 04:25

Часовой пояс: GMT + 2



Вы не можете начинать темы
Вы не можете отвечать на сообщения
Вы не можете редактировать свои сообщения
Вы не можете удалять свои сообщения
Вы не можете голосовать в опросах
Вы не можете прикреплять файлы к сообщениям
Вы можете скачивать файлы




покупка трафика на сайт