<
 
Статистика раздачи
Размер:  1.48 GB   |    Зарегистрирован:  5 лет 3 месяца   |    Скачан:  0 раз
DL-List: Нет
Сидов:  0 (+0)  [  0 KB/s  ]   Личеров:  0 (+0)  [  0 KB/s  ]   Подробная статистика пиров
 
   
 
 
 
Автор Сообщение

T_O_M ®

Торрент-статистика

-Каю (20 серий из ???) / Caillou (1998 – 2010) TVRip [Ukr]- Русское название: Каю
Оригинальное название: Caillou
Год выпуска: 1998 – 2010
Жанр: Детский
Страна: Канада
Перевод: Дублированный
Язык: Украинский

Режиссеры: Ларри Джейкобс, Jean Pilotte, Ник Риджгерсберг
Описание фильма:
Каю — это четырёхлетний малыш, очень милый и любопытный. Он постоянно попадает в какие-то истории.
Наблюдая за его приключениями, ваши дети будут познавать окружающий мир вместе с ним.
За Рип Спасибо lyolik_ya
Продолжительность: 01:57:06
Качество видео: TVRip
Видеокодек: Xvid
Битрейт видео: ~1671 kb/s
Размер кадра: 640x480
Аудиокодек: MP3 2 ch
Битрейт аудио: 128 kb/s

Список серий&#58;

нумерация из онлайн - трансляции
01.Валентинки Каю                     - 126
02.Привіт, весно!                     - 087
03.Першоквітневі жарти                - 088
04.Каю - старший брат                 - 008
05.Каю гуляє по сусідству             - 048
06.Каю згрібає листя                  - 004
07.Каю вчиться плавати                - 097
08.Каю вирощує моркву                 - 038
09.Що таке рінгет?                    - 108
10.Дощовий день на пляжі              - 109
11.Каю видирається на гору            - 089
12.Велика гірка Каю                   - 026
13.Каю вигулює собаку                 - 027
14.Каю готує                          - 090
15.Незвичний день                     - 091
16.Каю грає в боулінг                 - 092
17.Один,два, три, бах!                - 093
18.Лісові скарби                      - 094
19.Фарбування                         - 095
20.Каю у день подяки                  - 096

Доп.информация

Онлайн - трансляция содержит 165 серий. Файлы в формате fly с разными размерами кадра.

MediaInfo 1 серии

Формат : AVI
Формат/Информация : Audio Video Interleave
Размер файла : 100 Мбайт
Продолжительность : 7 м. 44 с.
Общий поток : 1811 Кбит/сек
Библиотека кодирования : Boilsoft Joiner build 2411/release
Видео
Идентификатор : 0
Формат : xvid
Идентификатор кодека : xvid
Продолжительность : 7 м. 44 с.
Битрейт : 1671 Кбит/сек
Ширина : 640 пикселей
Высота : 480 пикселей
Соотношение сторон : 4:3
Частота кадров : 29,970 кадров/сек
Бит/(Пиксели*Кадры) : 0.182
Размер потока : 92,5 Мбайт (92%)
Аудио
Идентификатор : 1
Формат : MPEG Audio
Версия формата : Version 1
Профиль формата : Layer 3
Режим : Joint stereo
Расширение режима : MS Stereo
Идентификатор кодека : 55
Идентификатор кодека/Подсказка : MP3
Продолжительность : 7 м. 44 с.
Вид битрейта : Постоянный
Битрейт : 128 Кбит/сек
Каналы : 2 канала
Частота : 48,0 КГц
Метод сжатия : С потерями
Размер потока : 7,09 Мбайт (7%)
Выравнивание : Разделение по промежуткам
Продолжительность промежутка : 33 мс. (1,00 видеокадр)
Время предзагрузки промежутка : 500 мс.
Скриншоты
Смотрите так же другие мои раздачи
Время раздачи: с 08:00 до 23:00 до первых 10-ти скачавших, далее по возможности

[megatrack.top].t417.torrent
Торрент: Зарегистрирован   [ 2013-04-03 21:02 ]

Скачать torrent

------------------------------

17 KB

Статус: проверено
Скачан: Скачаны:
Размер: 1.48 GB
Оценка:  - (Голосов: 0)
Поблагодарили: 0
:
 
 
Показать сообщения:    

Текущее время: Сегодня 14:33

Часовой пояс: GMT + 2



Вы не можете начинать темы
Вы не можете отвечать на сообщения
Вы не можете редактировать свои сообщения
Вы не можете удалять свои сообщения
Вы не можете голосовать в опросах
Вы не можете прикреплять файлы к сообщениям
Вы можете скачивать файлы




покупка трафика на сайт