<
 
Статистика раздачи
Размер:  700 MB   |    Зарегистрирован:  5 лет 6 месяцев   |    Скачан:  0 раз
DL-List: Нет
Сидов:  0 (+8)  [  0 KB/s  ]   Личеров:  0 (+1)  [  0 KB/s  ]   Подробная статистика пиров
 
   
 
 
 
Автор Сообщение

T_O_M ®

Торрент-статистика

-Заколдованная гора / The enchanted mountain (2008) DVDRip- Русское название: Заколдованная гора
Оригинальное название: The enchanted mountain
Год выпуска: 2008
Страна: КНДР
Жанр: Детский, Рисованная анимация, Сказка
Перевод: Дублированный
Озвучка / Автор перевода: "KidsCo"
Вид субтитров: Отсутствуют
Режиссер: Ким Чжун Ок, Ким Кён Хо, Ким Рён Хёк и Ким Ин Сон
Описание фильма:
По мотивам корейской народной сказки. В заповедных Кымганских горах юноша Мадал спасает раненого оленя. Узнав, что его спаситель не женат, олень открывает ему тайну: в полнолуние прекрасные феи Небесного королевства спускаются искупаться в горных озёрах...
Продолжительность: 01:43:35
Качество видео: DVDRip
Видео: MPEG4, XviD, 608x320 (1.900), 25.000 fps, 807 Kbps (0.166 bit/pixel)
Аудио: MP3, 48.0 KHz, 2 ch, 128 Kbps, CBR

МедиаИнфо&#58;

Видео
Идентификатор : 0
Формат : MPEG-4 Visual
Профиль формата : Advanced Simple@L5
Параметр BVOP формата : 2
Параметр QPel формата : Нет
Параметр GMC формата : Без точки перехода
Параметр матрицы формата : Default (H.263)
Режим смешивания : Сжатый битовый поток
Идентификатор кодека : XVID
Идентификатор кодека/Подсказка : XviD
Продолжительность : 1 ч. 43 м.
Битрейт : 807 Кбит/сек
Ширина : 608 пикселей
Высота : 320 пикселей
Соотношение сторон : 1,900
Частота кадров : 25,000 кадров/сек
Цветовое пространство : YUV
Субдискретизация насыщенности : 4:2:0
Битовая глубина : 8 бит
Тип развёртки : Прогрессивная
Метод сжатия : С потерями
Бит/(Пиксели*Кадры) : 0.166
Размер потока : 598 Мбайт (85%)
Библиотека кодирования : XviD 1.1.2 (UTC 2006-11-01)
Аудио
Идентификатор : 1
Формат : MPEG Audio
Версия формата : Version 1
Профиль формата : Layer 3
Идентификатор кодека : 55
Идентификатор кодека/Подсказка : MP3
Продолжительность : 1 ч. 43 м.
Вид битрейта : Постоянный
Битрейт : 128 Кбит/сек
Каналы : 2 канала
Частота : 48,0 КГц
Метод сжатия : С потерями
Размер потока : 94,8 Мбайт (14%)
Выравнивание : Разделение по промежуткам
Продолжительность промежутка : 40 мс. (1,00 видеокадр)
Время предзагрузки промежутка : 500 мс.

Дополнительная информация&#58;

Рип сделан братьями-славянами с чешского DVD (в Чехии фильм издан под названием "Víla z nebeského království" - Фея из небесного королевства). Русскую озвучку записал Василий Задов, за что ему большое спасибо. Синхронизация звука Mehanik_kv
Скриншоты:

Время раздачи: с 11:00 до 01:00

[megatrack.top].t428.torrent
Торрент: Зарегистрирован   [ 2013-04-03 21:02 ]

Скачать torrent

------------------------------

14 KB

Статус: проверено
Скачан: Скачаны:
Размер: 700 MB
Оценка:  - (Голосов: 0)
Поблагодарили: 0
:
 
 
Показать сообщения:    

Текущее время: Сегодня 23:59

Часовой пояс: GMT + 2



Вы не можете начинать темы
Вы не можете отвечать на сообщения
Вы не можете редактировать свои сообщения
Вы не можете удалять свои сообщения
Вы не можете голосовать в опросах
Вы не можете прикреплять файлы к сообщениям
Вы можете скачивать файлы




покупка трафика на сайт