<
 
Статистика раздачи
Размер:  629 MB   |    Зарегистрирован:  5 лет 6 месяцев   |    Скачан:  0 раз
DL-List: Нет
Сидов:  0 (+0)  [  0 KB/s  ]   Личеров:  0 (+0)  [  0 KB/s  ]   Подробная статистика пиров
 
   
 
 
 
Автор Сообщение

T_O_M ®

Торрент-статистика

-Оранжевый мишка / The Tangerine Bear: Home in Time for Christmas! (2000) DVDRip- Русское название: Оранжевый мишка
Оригинальное название: The Tangerine Bear: Home in Time for Christmas!
Год выпуска: 2000
Жанр: Рисованная анимация
Перевод: Многоголосый закадровый, профессиональный
Вид субтитров: Отсутствуют
Режиссер: Берт Ринг
Персонажи: Том Босли, Дженна Элфмэн, Хоуи Мэндел, Дэвид Хайд Пирс, Джонатан Тейлор Томас, Марлон Уайанс, Триша Йервуд, Дэвид Л. Лэндер, Джон Полито, Орландо Браун, Джинни Илайас, Мартин Грэй, Ральф Манза, Донна Пиерони, Шарлотта Рэй, Аарон Спанн, Камилла Уинбуш
Описание фильма:
Перед Рождеством на фабрике игрушек кипит работа. Все дети ждут подарков, поэтому нужно успеть сделать как можно больше красивых кукол, веселых мартышек и плюшевых медвежат. Но одному медвежонку не повезло — в спешке ему неправильно пришили рот, и вместо улыбки получилась унылая гримаса.
Таким он и попал на магазинную полку, где его никто не хотел покупать. Медвежонок совсем пал духом и уж было решил, что так навсегда и останется один. Но в Рождество всегда случаются чудеса и в маленьком магазинчике, который теперь стал его домом, Мишка неожиданно встречает верных друзей — таких же, как он странных и чудаковатых игрушек.

Продолжительность: 00:47:25
Качество видео: DVDRip

Видео:
MPEG4, DivX 5, 640x512 (5:4), 25.000 fps, 1 653 Kbps (0.202 bit/pixel)
Аудио: AC-3, 48.0 KHz, 2 ch, 192 Kbps, CBR

МедиаИнфо&#58;

Видео
Идентификатор : 0
Формат : MPEG-4 Visual
Параметр BVOP формата : 2
Параметр QPel формата : Нет
Параметр GMC формата : Без точки перехода
Параметр матрицы формата : Default (H.263)
Режим смешивания : Сжатый битовый поток
Идентификатор кодека : DX50
Идентификатор кодека/Подсказка : DivX 5
Продолжительность : 47 м.
Битрейт : 1653 Кбит/сек
Ширина : 640 пикселей
Высота : 512 пикселей
Соотношение сторон : 5:4
Частота кадров : 25,000 кадров/сек
Цветовое пространство : YUV
Субдискретизация насыщенности : 4:2:0
Битовая глубина : 8 бит
Тип развёртки : Прогрессивная
Метод сжатия : С потерями
Бит/(Пиксели*Кадры) : 0.202
Размер потока : 561 Мбайт (89%)
Библиотека кодирования : DivX 6.4.0 (UTC 2006-10-03)
Аудио
Идентификатор : 1
Формат : AC-3
Формат/Информация : Audio Coding 3
Расширение режима : CM (complete main)
Параметр Endianness формата : Big
Идентификатор кодека : 2000
Продолжительность : 47 м.
Вид битрейта : Постоянный
Битрейт : 192 Кбит/сек
Каналы : 2 канала
Расположение каналов : Front: L R
Частота : 48,0 КГц
Битовая глубина : 16 бит
Метод сжатия : С потерями
Размер потока : 65,1 Мбайт (10%)
Выравнивание : Соединение по промежуткам
Продолжительность промежутка : 40 мс. (1,00 видеокадр)
Время предзагрузки промежутка : 512 мс.
Скриншоты:

Время раздачи: с 11:00 до 01:00

[megatrack.top].t436.torrent
Торрент: Зарегистрирован   [ 2013-04-03 21:02 ]

Скачать torrent

------------------------------

13 KB

Статус: проверено
Скачан: Скачаны:
Размер: 629 MB
Оценка:  - (Голосов: 0)
Поблагодарили: 0
:
 
 
Показать сообщения:    

Текущее время: Сегодня 00:11

Часовой пояс: GMT + 2



Вы не можете начинать темы
Вы не можете отвечать на сообщения
Вы не можете редактировать свои сообщения
Вы не можете удалять свои сообщения
Вы не можете голосовать в опросах
Вы не можете прикреплять файлы к сообщениям
Вы можете скачивать файлы




покупка трафика на сайт