<
 
Статистика раздачи
Размер:  1.36 GB   |    Зарегистрирован:  5 лет 5 месяцев   |    Скачан:  0 раз
DL-List: Нет
Сидов:  0 (+0)  [  0 KB/s  ]   Личеров:  0 (+0)  [  0 KB/s  ]   Подробная статистика пиров
 
   
 
 
 
Автор Сообщение

T_O_M ®

Торрент-статистика

-Принц Щелкунчик / The Nutcracker Prince (1990) DVDRip- Русское название: Принц Щелкунчик
Оригинальное название: The Nutcracker Prince
Год выпуска: 1990
Жанр: мультфильм, фэнтези, приключения, семейный
Страна: Канада
Перевод: Одноголосый закадровый, многоголосый закадровый
Режиссер: Пол Шибли
Описание фильма:
Наступил Сочельник, канун Рождества, и все члены семьи Штальбаумов радостно разворачивают свои рождественские подарки.
Когда восторги улеглись, семилетняя Клара получает еще один, весьма необыкновенный подарок — таинственного Щелкунчика.
Злая ведьма Мышильда заколдовала племянника ее любимого крестного Дроссельмейера и превратила его в деревянную игрушку — Щелкунчика.
Чтобы снять заклятие Щелкунчик должен завоевать любовь Клары и сразить злобного мышиного короля.

Дата мировой премьеры: 21 ноября 1990
За Рип Спасибо scrin
Продолжительность: 01:13:01
Качество видео: DVDRip
Видеокодек: Xvid
Битрейт видео: ~1979 kb/s
Размер кадра: 704x528
Аудио #1: AC3 2 ch, 256 kb/s - Русский одноголосый (Михалев)
Аудио #2: AC3 6 ch, 384 kb/s - Русский многоголосый

MediaInfo

Формат : Matroska
Версия формата : Version 4 / Version 2
Размер файла : 1,36 Гбайт
Продолжительность : 1 ч. 13 м.
Общий поток : 2672 Кбит/сек
Дата кодирования : UTC 2010-02-22 21:41:31
Программа кодирования : mkvmerge v5.8.0 ('No Sleep / Pillow') built on Nov 13 2012 19:43:22
Библиотека кодирования : libebml v1.3.0 + libmatroska v1.4.0
Видео
Идентификатор : 1
Формат : MPEG-4 Visual
Профиль формата : Advanced Simple@L5
Параметр BVOP формата : Да
Параметр QPel формата : Нет
Параметр GMC формата : Без точки перехода
Параметр матрицы формата : Default (H.263)
Идентификатор кодека : XVID
Идентификатор кодека/Подсказка : XviD
Продолжительность : 1 ч. 13 м.
Битрейт : 1979 Кбит/сек
Ширина : 704 пикселя
Высота : 528 пикселей
Соотношение сторон : 4:3
Частота кадров : 23,976 кадра/сек
Цветовое пространство : YUV
Субдискретизация насыщенности : 4:2:0
Битовая глубина : 8 бит
Тип развёртки : Прогрессивная
Метод сжатия : С потерями
Бит/(Пиксели*Кадры) : 0.222
Размер потока : 1,01 Гбайт (74%)
Библиотека кодирования : XviD 1.2.0.dev47 (UTC 2006-11-01)
Default : Да
Forced : Нет
Аудио #1
Идентификатор : 2
Формат : AC-3
Формат/Информация : Audio Coding 3
Расширение режима : CM (complete main)
Параметр Endianness формата : Big
Режим смешивания : Header stripping
Идентификатор кодека : A_AC3
Продолжительность : 1 ч. 13 м.
Вид битрейта : Постоянный
Битрейт : 256 Кбит/сек
Каналы : 2 канала
Расположение каналов : Front: L R
Частота : 48,0 КГц
Битовая глубина : 16 бит
Метод сжатия : С потерями
Размер потока : 134 Мбайт (10%)
Default : Да
Forced : Нет
Аудио #2
Идентификатор : 3
Формат : AC-3
Формат/Информация : Audio Coding 3
Расширение режима : CM (complete main)
Параметр Endianness формата : Big
Режим смешивания : Header stripping
Идентификатор кодека : A_AC3
Продолжительность : 1 ч. 13 м.
Вид битрейта : Постоянный
Битрейт : 384 Кбит/сек
Каналы : 6 каналов
Расположение каналов : Front: L C R, Side: L R, LFE
Частота : 48,0 КГц
Битовая глубина : 16 бит
Метод сжатия : С потерями
Размер потока : 201 Мбайт (14%)
Default : Нет
Forced : Нет
Скриншоты:
Принц Щелкунчик / The Nutcracker Prince (1990) на NNM-CLUBСмотрите так же другие мои раздачи
Время раздачи: с 08:00 до 23:00 до первых 10-ти скачавших, далее по возможности

[megatrack.top].t437.torrent
Торрент: Зарегистрирован   [ 2013-04-03 21:02 ]

Скачать torrent

------------------------------

14 KB

Статус: проверено
Скачан: Скачаны:
Размер: 1.36 GB
Оценка:  - (Голосов: 0)
Поблагодарили: 0
:
 
 

Как и ожидалось, игра Assassin's Creed Pirates стала доступной в магазинах Apple App Store, Google Play и Amazon Appstore в четверг, 5 декабря. В новой части популярной франшизы внимание геймеров  приковано к морским сражениям.


Главным героем Assassin's Creed Pirates является отважный капитан корабля Алонсо Батилла (Alonzo Batilla). Он примет участие в многочисленных пиратских баталиях. Улучшая свое судно и набирая команду, Батилле предстоит найти легендарные сокровища в Карибском море. На его пути встретятся пираты, известные по версии Assassin's Creed IV: Black Flag. При этом в Ubisoft говорят, что новая игра не связана с этим проектом.



Assassin's Creed Pirates использует новый 3D-движок, который, по словам разработчиков, задаст новый стандарт на рынке мобильных игр.



Напомним, что в начале будущего года для ПК, Xbox 360 и PlayStation 3 появится игра Assassin’s Creed: Liberation HD. Первоначально она была доступна на PlayStation Vita.

 
Показать сообщения:    

Текущее время: Сегодня 05:08

Часовой пояс: GMT + 2



Вы не можете начинать темы
Вы не можете отвечать на сообщения
Вы не можете редактировать свои сообщения
Вы не можете удалять свои сообщения
Вы не можете голосовать в опросах
Вы не можете прикреплять файлы к сообщениям
Вы можете скачивать файлы




покупка трафика на сайт