<
 
Статистика раздачи
Размер:  12.72 GB   |    Зарегистрирован:  5 лет 3 месяца   |    Скачан:  0 раз
DL-List: Нет
Сидов:  0 (+6)  [  0 KB/s  ]   Личеров:  0 (+0)  [  0 KB/s  ]   Подробная статистика пиров
 
   
 
 
 
Автор Сообщение

T_O_M ®

Торрент-статистика

-Кот по имени Ик / Eek! The cat! (1994) TVRip- Русское название: Кот по имени Ик
Оригинальное название: Eek! The cat!
Год выпуска: 1994
Страна: США,Канада.
Студия: Nelvana Limited,Fox Children's Productions,Savage Studios.
Телеканал: Fox Kids.
Жанр: Рисованная анимация, Комедия
Перевод: Профессиональный.
Язык: Русский.
Озвучка: полное дублирование, телеканал РЕН-ТВ.

Дата мировой премьеры: 12 сентября 1992.
Трансляция: 12 сентября 1992 - 1 сентября 1997.
Режиссер: Стив Саваж Холанд, Билл Копп.
Сценарий: Сэвидж Стив Холланд, Билл Копп, Сэнди Фрайс.
Продюсер: Патриция Р. Барнс, Майкл Херш, Стивен Ходжинс.
Композитор: Натан Ванг.
Художник: Mike Csunyoscka, Дэрин Бристоу.
Продолжительность: 52 ~ 00:20:00
Число сезонов: 5 сезонов.
Число серий: 52 серии.
Описание фильма:
Это мультфильм о коте по имени Ик, который постоянно попадает в комические ситуации. У него добрые намерения, но ему постоянно не везет. Не смотря на то, что его постоянно раздавливают, вытягивают и бьют, он не унывает. Его доброе сердце берет вверх над разумом. Он влюблен в Анабель, которая больше его в 4 раза, носит розовую пачку и ходит на высоких каблуках. Шарки — соседский пес, в два раза меньше Ика, но с пастью акулы. Помимо кота Ика и его друзей мультфильм населяют много разных персонажей: в мезозойской Эре самые гадкие и подлые динозавры из когда-либо существующих на Земле, Ужасные Сандерлизарды, продолжают преследовать невежественных пещерных людей, Била и Скутера. Однако, Неандертальцам везет, так как эти огромные рептилии больше наносят вреда самим себе

Дополнительная информация&#58;

Параллельно с историями о коте Ике в большинстве серий, начиная со второго сезона, есть эпизод о борьбе Громозавров (англ. Thunderlizards) с первыми людьми на планете, а в некоторые серии четвёртого сезона вставлен эпизод о Хламе (англ. Klutter) — странном существе из тряпок.

Список серий&#58;

1 сезон:
MiserEek (September 12, 1992)
Bearz 'n the Hood (September 19, 1992)
Catsanova (September 26, 1992)
Eek vs. The Flying Saucers (October 3, 1992)
HallowEek (October 10, 1992)
Cape Fur (October 17, 1992)
HawaiiEek 5-0 (October 24, 1992)
Eek's International Adventure (October 31, 1992)
Great Balls of Fur! (November 7, 1992)
The Whining Pirates of Tortuga (November 14, 1992)
The Eekcidental Tourist (November 21, 1992)
The Eeksterminator (November 28, 1992)
It's A Wonderful Nine Lives (December 5, 1992)
2 сезон:
Shark Therapy / Meat The Thunderlizards
Eek's Funny Thing That He Does / Always Eat Your Spinach
Speed FrEek / The Lava My Life
Rocketship to Jupiter / Thundersarus Wrecks
Eekpocalypse Now! / Tar And Away
Night on Squishy Mountain / Let's Make A Wheel
Eeking Out a Living / Ice Age Kapades
Quadrapedia / The Frying Game
Eex Men / All About Babs
Star TrEek / T-Rex, Lies, and Videotape
The Great Eekscape / Eek Goes to the Hot Spot
Mountain Groan / A Sharkwork Orange
Something Abyss / The Unbearable Lightness of Being Scooter
It's A Very Merry Eek's Mas
3 сезон:
The Eex Files / The Hurting Show (September 10, 1994)
The Good, The Bad And The Squishy / Birth Of A Notion (September 17, 1994)
Eek's SnEek PEek / The Thunder Years (September 24, 1994)
Paw Sores / T-Rex and Sympathy (October 1, 1994)
Paws / In The Line Of Fur (October 8, 1994)
Chariots Of Fur / Honey I Shrunk The Cat (October 15, 1994)
Shark Doggy Dog / Fatal Eektraction (October 22, 1994)
A Sharkdog Day Afternoon / Rebel Without The Claws (October 29, 1994)
Try Hard / Eeksy Rider (November 5, 1994)
The Eeksorcist / Postcards from The X-Zone (November 12, 1994)
Lord Of The Fleas / Cromagnon Farce (November 19, 1994)
Eekstremely Dull / Planet Of The Crepes (November 26, 1994)
This Eek's Your Life / Boo Thunder (December 3, 1994)
4 сезон:
Valley of the Dogs / Klutter (September 9, 1995)
Pup Fiction / The Klutter And I (Infection) (September 16, 1995)
Natural Bored Kittens / Lizard Of Aaaahs (September 23, 1995)
OutBrEek / Arctic Blast (October 7, 1995)
Octopussy Cat / Mixed Klutter (October 14, 1995)
Going To Eekstremes / Bi-Pedator (October 21, 1995)
Dazed And Eekstremely Confuzed / FrankenKlutter (November 4, 1995)
Eek Space 9 / The Yawn Of Man (November 11, 1995)
The GraduEek / The Magnificent 5 1/2 (November 18, 1995)
PolitEekly Correct / Whatta World (November 25, 1995)
Goop Dreams / Night Of The Living Spuds (January 30, 1996)
It's A Thunderful Life / Peanut, Klutter and Jelly (April 4, 1996)
Thunder & Frightning / Bonfire Of The Vanna Tea (April 8, 1996)
The Thunder Of It All / The Ghost Of Goober Bottom Pond (April 11, 1996)
5 сезон:
DiabolEek / Pre-Hysteric Man (October 24, 1996)
Fists Of Furry / Molten Rock -N- Roll (October 28, 1996)
The Island Of Dr. Meow / Home O' Sapien Alone (July 7, 1997)
Nightmare On Elmo St. / Night Of The Living Duds (July 14, 1997)
Thunder Valley (July 17, 1997)
Show Squirls (July 18, 1997)
Eekscaliber (July 21, 1997)
The FugEektive (July 25, 1997)
Snowbored (August 2, 1997)
Rock-Eek 6 (August 8, 1997)
MystEek Pizza (August 29, 1997)
Eek Bin Ein Berliner (September 1, 1997)
The Sound of MusEek / Oh...The Humanity (September 5, 1997)

MediaInfo&#58;

Format : AVI
Format/Info : Audio Video Interleave
File size : 249 MiB
Duration : 19mn 56s
Overall bit rate : 1 746 Kbps
Writing application : VirtualDubMod 1.5.4.1 (build 2178/release)
Writing library : VirtualDubMod build 2178/release
Video
ID : 0
Format : MPEG-4 Visual
Format profile : Advanced Simple@L5
Format settings, BVOP : Yes
Format settings, QPel : No
Format settings, GMC : No warppoints
Format settings, Matrix : Custom
Codec ID : XVID
Codec ID/Hint : XviD
Duration : 19mn 56s
Bit rate : 1 627 Kbps
Width : 720 pixels
Height : 544 pixels
Display aspect ratio : 4:3
Frame rate : 25.000 fps
Color space : YUV
Chroma subsampling : 4:2:0
Bit depth : 8 bits
Scan type : Progressive
Bits/(Pixel*Frame) : 0.166
Stream size : 232 MiB (93%)
Writing library : XviD 1.1.2 (UTC 2006-11-01)
Audio
ID : 1
Format : MPEG Audio
Format version : Version 1
Format profile : Layer 3
Mode : Joint stereo
Mode extension : MS Stereo
Codec ID : 55
Codec ID/Hint : MP3
Duration : 19mn 55s
Bit rate mode : Variable
Bit rate : 106 Kbps
Channel(s) : 2 channels
Sampling rate : 48.0 KHz
Stream size : 15.2 MiB (6%)
Alignment : Aligned on interleaves
Interleave, duration : 24 ms (0.60 video frame)
Interleave, preload duration : 480 ms
Качество видео: TVRip
Видеокодек: Xvid
Битрейт видео: ~ 1627 Kbps.
Размер кадра: 720х544,(4:3),25 кадр/сек.
Аудиокодек: MP3
Битрейт аудио: 106 kbps,48.0 KHz,2 channels.
Скриншоты: Время раздачи: Будни с 19:00 до 6:00. Выходные круглосуточно.

[megatrack.top].t452.torrent
Торрент: Зарегистрирован   [ 2013-04-03 21:02 ]

Скачать torrent

------------------------------

70 KB

Статус: проверено
Скачан: Скачаны:
Размер: 12.72 GB
Оценка:  - (Голосов: 0)
Поблагодарили: 0
:
 
 
Показать сообщения:    

Текущее время: Сегодня 14:32

Часовой пояс: GMT + 2



Вы не можете начинать темы
Вы не можете отвечать на сообщения
Вы не можете редактировать свои сообщения
Вы не можете удалять свои сообщения
Вы не можете голосовать в опросах
Вы не можете прикреплять файлы к сообщениям
Вы можете скачивать файлы




покупка трафика на сайт