<
 
Статистика раздачи
Размер:  1.47 GB   |    Зарегистрирован:  5 лет 5 месяцев   |    Скачан:  0 раз
DL-List: Нет
Сидов:  0 (+0)  [  0 KB/s  ]   Личеров:  0 (+0)  [  0 KB/s  ]   Подробная статистика пиров
 
   
 
 
 
Автор Сообщение

T_O_M ®

Торрент-статистика

-Большое путешествие / The Wild (2006) BDRip- Русское название: Большое путешествие
Оригинальное название: The Wild
Год выпуска: 2006
Жанр: мультфильм, комедия, приключения, семейный
Перевод: Дублированный
Субтитры: Отсутствуют

Дата мировой премьеры: 6 апреля 2006
Дата российской премьеры: 27 апреля 2006, «Каскад»
Дата выхода DVD/Blu-Ray релиза: 3 августа 2009, «CP-Digital»
Режиссер: Стив Спаз Уильямс
Персонажи: Кифер Сазерленд, Джеймс Белуши, Эдди Иззард, Джанин Гарофало, Уильям Шэтнер, Ричард Кайнд, Грег Сайпс, Колин Хэй, Майлз Марсико, Джек Де Сена
Описание фильма:
Львенка Райана разлучили с его отцом и из Нью-Йоркского зоопарка отправили на корабле в Африку. Его друзья решают помочь царю зверей найти сына и, сбежав из зоопарка, отправляются на поиски Райана... Выбраться из Нью-Йорка - очень непростая задача, ведь по его закоулкам бродят страшные дикие звери. В Африке изнеженные городской жизнью животные встречают травоядных, которые решили стать хищниками. И для этого превращения им нужно провести обряд - жизни героев в опасности, дикая природа оказалась слишком дикой...
Продолжительность: 1:21:35
Качество видео: BDRip
Формат: m4v
Видеокодек: AVC
Битрейт видео: ~2311 Kbps
Размер кадра: 1024x560
Аудиокодек: AAC
Битрейт аудио: 132.3 Kbps
Аудио: Русский; Английский: 48 kHz, 2ch, D:\Мульти\The Wild.m4v
General
Complete name : D:\Мульти\The Wild.m4v
Format : MPEG-4
Format profile : Base Media / Version 2
Codec ID : mp42
File size : 1.47 GiB
Duration : 1h 21mn
Overall bit rate : 2 584 Kbps
Movie name : Большое путешествие
Performer : Стив ’Спаз’ Уильямс
Genre : Kids & Family
Recorded date : UTC 2006-09-12 07:00:00
Encoded date : UTC 2012-05-08 19:55:54
Tagged date : UTC 2012-05-14 07:02:28
Cover : Yes
desc : Львенка Райана разлучили с его отцом и из нью-йоркского зоопарка отправили на корабле в Африку. Его друзья по зверинцу — коала, крокодил, хамелеон, жираф и белка — решают помочь царю зверей найти сына и, сбежав из зоопарка, отправляются на поиски Райана…
ldes : Львенка Райана разлучили с его отцом и из нью-йоркского зоопарка отправили на корабле в Африку. Его друзья по зверинцу — коала, крокодил, хамелеон, жираф и белка — решают помочь царю зверей найти сына и, сбежав из зоопарка, отправляются на поиски Райана…
hdvd : 1
stik : 9
rtng : 0
cnID : 187699445
xid : iPad:vendor_id:2006-81660
iTunEXTC : mpaa|G|100|
iTunMOVI : / / / / cast / / / name / Кифер Сазерленд / / / name / Джеймс Белуши / / / name / Эдди Иззард / / / name / Джанин Гарофало / / / name / Уильям Шетнер / / / name / Ричард Кайнд / / / name / Грег Сайпс / / / name / Колин Хэй / / / name / Майлз Марсико / / / name / Джек Де Сена / / / name / Дон Черри / / / name / Ника Футтерман / / / name / Джулианна Бушер / / / directors / / / name / Стив ’Спаз’ Уильямс / / / producers / / / name / Джим Бертон / / / name / Уилл Винтон / / / name / Эд Дектер / / / screenwriters / / / name / Эд Дектер / / / name / Джон Дж. Штраусс / / / name / Марк Гибсон / / / /
Video #1
ID : 1
Format : AVC
Format/Info : Advanced Video Codec
Format profile : [url=mailto:High@L4.0]High@L4.0[/url]
Format settings, CABAC : Yes
Format settings, ReFrames : 9 frames
Codec ID : avc1
Codec ID/Info : Advanced Video Coding
Duration : 1h 21mn
Bit rate mode : Variable
Bit rate : 2 311 Kbps
Width : 1 024 pixels
Height : 560 pixels
Display aspect ratio : 16:9
Frame rate mode : Variable
Frame rate : 23.976 fps
Minimum frame rate : 23.810 fps
Maximum frame rate : 24.390 fps
Color space : YUV
Chroma subsampling : 4:2:0
Bit depth : 8 bits
Scan type : Progressive
Bits/(Pixel*Frame) : 0.168
Stream size : 1.32 GiB (89%)
Writing library : x264 core 120
Encoding settings : cabac=1 / ref=9 / deblock=1:-1:-1 / analyse=0x3:0x133 / me=umh / subme=9 / psy=1 / psy_rd=0.40:0.00 / mixed_ref=1 / me_range=24 / chroma_me=1 / trellis=2 / 8x8dct=1 / cqm=0 / deadzone=21,11 / fast_pskip=1 / chroma_qp_offset=-2 / threads=3 / sliced_threads=0 / nr=0 / decimate=1 / interlaced=0 / bluray_compat=0 / constrained_intra=0 / bframes=8 / b_pyramid=2 / b_adapt=1 / b_bias=0 / direct=3 / weightb=1 / open_gop=0 / weightp=2 / keyint=240 / keyint_min=24 / scenecut=40 / intra_refresh=0 / rc_lookahead=60 / rc=2pass / mbtree=1 / bitrate=2311 / ratetol=1.0 / qcomp=0.70 / qpmin=3 / qpmax=69 / qpstep=4 / cplxblur=20.0 / qblur=0.5 / ip_ratio=1.40 / aq=1:0.60
Encoded date : UTC 2012-05-08 19:55:54
Tagged date : UTC 2012-05-09 01:59:07
Color primaries : BT.709-5, BT.1361, IEC 61966-2-4, SMPTE RP177
Transfer characteristics : BT.709-5, BT.1361
Matrix coefficients : BT.709-5, BT.1361, IEC 61966-2-4 709, SMPTE RP177
Audio #2
ID : 2
Format : AAC
Format/Info : Advanced Audio Codec
Format profile : LC
Codec ID : 40
Duration : 1h 21mn
Bit rate mode : Variable
Bit rate : 132.3 Kbps
Maximum bit rate : 218 Kbps
Channel(s) : 2 channels
Channel positions : Front: L R
Sampling rate : 48.0 KHz
Compression mode : Lossy
Stream size : 76.8 MiB (5%)
Language : Russian
Encoded date : UTC 2012-05-14 07:01:15
Tagged date : UTC 2012-05-14 07:01:41
Audio #3
ID : 3
Format : AAC
Format/Info : Advanced Audio Codec
Format profile : LC
Codec ID : 40
Duration : 1h 21mn
Bit rate mode : Variable
Bit rate : 132.3 Kbps
Maximum bit rate : 220 Kbps
Channel(s) : 2 channels
Channel positions : Front: L R
Sampling rate : 48.0 KHz
Compression mode : Lossy
Stream size : 76.9 MiB (5%)
Language : English
Encoded date : UTC 2012-05-14 07:01:15
Tagged date : UTC 2012-05-14 07:02:08 Скриншоты:

Большое путешествие на NNM-clubВремя раздачи: 24/7 (до 10 скачавших)

[megatrack.top].t455.torrent
Торрент: Зарегистрирован   [ 2013-04-03 21:02 ]

Скачать torrent

------------------------------

16 KB

Статус: проверено
Скачан: Скачаны:
Размер: 1.47 GB
Оценка:  - (Голосов: 0)
Поблагодарили: 0
:
 
 
Показать сообщения:    

Текущее время: Сегодня 05:05

Часовой пояс: GMT + 2



Вы не можете начинать темы
Вы не можете отвечать на сообщения
Вы не можете редактировать свои сообщения
Вы не можете удалять свои сообщения
Вы не можете голосовать в опросах
Вы не можете прикреплять файлы к сообщениям
Вы можете скачивать файлы




покупка трафика на сайт